libardomm
"I read a book one day and my whole life was changed. — Orhan Pamuk"

Better Call Saul S03E010 1080p [3,2 Gb][Final]

Better Call Saul S03E010 1080p
[Subtitulos ]

General:


Ambientada en 2002, seis años antes de los acontecimientos relatadas en Breaking Bad, Better Call Saul es un spin-off centrado en el personaje de James 'Jimmy' McGuill (Bob Odenkirk), antes de que asuma la identidad de Saul Goodman, un abogado corrupto con un humor políticamente incorrecto vinculado al mundo criminal que empieza a crear una importante red de contactos en los bajos mundos. La serie narra los acontecimientos que llevan a McGuill a convertirse en Saul antes de trabajar con Walter White (Bryan Cranston), más conocido como Heisenberg, el narcotraficante más temido de Nuevo México.

A McGuill le acompañan su hermano Chuck (Michael McKean), también abogado y máximo referente de éxito para Jimmy; Kim Wexler (Rhea Seehorn), una vieja amiga del protagonista; y Mike Ehrmantraut (Jonathan Banks), policía retirado que trabaja formalmente como investigador privado, pero que en realidad es una tapadera para su labor como el hombre que resuelve los problemas de McGuill, a menudo con métodos violentos.

Otros actores que participan en Better Call Saul son Patrick Fabian, como el abogado Howard Hamlin; Michael Mando, que interpreta al peligroso criminal Nacho Varga; Julie Ann Emery, que será la delincuente Betsy Kettleman; y Jeremy Shamos, en el papel de Craig Kettleman, delincuente y marido de Betsy.


Técnicos: 

General
Unique ID                      : 163028834865529788074488685480490811520 (0x7AA63623FC835345F799F41CB7F3C080)
Complete name                  : E:\Datos\Megadownloader\Better.Call.Saul.S03E10.CONVERT.1080p.WEB.h264-TBS\Better.Call.Saul.S03E10.CONVERT.1080p.WEB.h264-TBS.mkv
Format                         : Matroska
Format version                 : Version 4 / Version 2
File size                      : 3.18 GiB
Duration                       : 56 min 43 s
Overall bit rate               : 8 035 kb/s
Encoded date                   : UTC 2017-06-20 03:17:29
Writing application            : mkvmerge v8.8.0 ('Wind at my back') 64bit
Writing library                : libebml v1.3.3 + libmatroska v1.4.4

Video
ID                             : 1
Format                         : AVC
Format/Info                    : Advanced Video Codec
Format profile                 : [email protected]
Format settings, CABAC         : Yes
Format settings, ReFrames      : 3 frames
Codec ID                       : V_MPEG4/ISO/AVC
Duration                       : 56 min 43 s
Bit rate mode                  : Constant
Bit rate                       : 8 000 kb/s
Width                          : 1 920 pixels
Height                         : 1 080 pixels
Display aspect ratio           : 16:9
Frame rate mode                : Variable
Frame rate                     : 29.970 FPS
Color space                    : YUV
Chroma subsampling             : 4:2:0
Bit depth                      : 8 bits
Scan type                      : Progressive
Bits/(Pixel*Frame)             : 0.129
Stream size                    : 3.13 GiB (98%)
Default                        : Yes
Forced                         : No

Audio
ID                             : 2
Format                         : AAC
Format/Info                    : Advanced Audio Codec
Format profile                 : LC
Codec ID                       : A_AAC
Duration                       : 56 min 43 s
Bit rate                       : 126 kb/s
Channel(s)                     : 2 channels
Channel positions              : Front: L R
Sampling rate                  : 44.1 kHz
Frame rate                     : 43.066 FPS (1024 spf)
Compression mode               : Lossy
Stream size                    : 51.0 MiB (2%)
Default                        : Yes
Forced                         : No



          











Nota: Usen la ultima version de 7zip para descomprimir.
Nota2: Si tienen problemas para bajar por mega con megadownloader, usen VPN. 
peliculas - programas
20 Puntos Score: 10/10
Visitas: 468 Favoritos: 0
Ver los usuarios que votaron...
3 Comentarios Better Call Saul S03E010 1080p [3,2 Gb][Final]
Hermano muchisimas gracias por subir toda la temporada en esta calidad con audio en ingles y subtitulos en español  
Wow que pasadisimo el final de temporada.  
Gracias por compartir.
Para dejar un comentario Registrate! o.. eres ya usuario? Accede!
Facebook Identi