Leopulga
"Ripeos AVC y HEVC solo para coleccionistas."

Exclusivo|Braveheart (1995) 1080p Very Slow CRF20

Hola, amigos de Identi.li regreso a postear en esta gran comunidad, nada más ni nada menos que películas en la máxima calidad posible imitando al Blu-ray Original.

Esto se consigue mediante una Configurción (CFG) de ripeo exigente llamada Placebo o Very Slow y con un CRF20 que es lo que alcanza a distinguir el ojo humano y dejando unos rips al peso menor posible con calidad me animaría a decir casi como el Blu-ray.

IMPORTANTE: SOMOS UN GRUPO DE ENCODERS, EN ESTE CASO LES TRAIGO BRAVEHEART (1995) EN CALIDAD PLACEBO CRF20 RIPEADA POR UNO DEL GRUPO @MARTINVERA, DEJEN SUS AGRADECIMIENTOS HACIA ÉL.


Braveheart (1995) 1080p BluRay x264 Dual Latino - Vera




Sinopsis

Braveheart (1995)

En el siglo XIV, los escoceses viven oprimidos por los gravosos tributos y las injustas leyes impuestas por los ingleses. William Wallace es un joven escocés que regresa a su tierra despues de muchos años de ausencia. Siendo un niño, toda su familia fue asesinada por los ingleses, razón por la cual se fue a vivir lejos con un tío suyo.


Ficha Técnica

Fuente: BD50 (USA)
Ripeo: Very Slow CRF20
Tiempo de Ripeo: 13 horas
Audios: Español Latino AC3 5.1 @640Kbps (BD) - Inglés AAC 5.1 (BD)
Subtítulos: Si (SRT/PGS-Español y Forzados)
IMDB: 8.4


MediaInfo

Braveheart (14,8GB)

General
Unique ID                   : 233886124574493762811898230619049308536 (0xAFF4D43F351F7D6EBE1177EB5DDC3178)
Complete name               : Braveheart.1995.1080p.BluRay.x264.Dual.Latino-Vera.mkv
Format                      : Matroska
Format version              : Version 4 / Version 2
File size                   : 14.9 GiB
Duration                    : 2 h 57 min
Overall bit rate            : 12.0 Mb/s
Encoded date                : UTC 2017-05-17 17:04:12
Writing application         : mkvmerge v11.0.0 ('Alive') 64bit
Writing library             : libebml v1.3.4 + libmatroska v1.4.5

Video
ID                          : 1
Format                      : AVC
Format/Info                 : Advanced Video Codec
Format profile              : [email protected]
Format settings, CABAC      : Yes
Format settings, ReFrames   : 4 frames
Codec ID                    : V_MPEG4/ISO/AVC
Duration                    : 2 h 57 min
Bit rate                    : 10.8 Mb/s
Width                       : 1 920 pixels
Height                      : 1 080 pixels
Display aspect ratio        : 16:9
Frame rate mode             : Constant
Frame rate                  : 23.976 (24000/1001) FPS
Color space                 : YUV
Chroma subsampling          : 4:2:0
Bit depth                   : 8 bits
Scan type                   : Progressive
Bits/(Pixel*Frame)          : 0.217
Stream size                 : 13.4 GiB (90%)
Title                       : Fuente Encodeo: BD50 - Vera
Writing library             : x264 core 148 r2744 b97ae06
Encoding settings           : cabac=1 / ref=4 / deblock=1:0:0 / analyse=0x3:0x133 / me=tesa / subme=10 / psy=1 / psy_rd=1.00:0.00 / mixed_ref=1 / me_range=24 / chroma_me=1 / trellis=2 / 8x8dct=1 / cqm=0 / deadzone=21,11 / fast_pskip=1 / chroma_qp_offset=-2 / threads=12 / lookahead_threads=2 / sliced_threads=0 / nr=0 / decimate=1 / interlaced=0 / bluray_compat=0 / constrained_intra=0 / bframes=8 / b_pyramid=2 / b_adapt=2 / b_bias=0 / direct=3 / weightb=1 / open_gop=0 / weightp=2 / keyint=240 / keyint_min=23 / scenecut=40 / intra_refresh=0 / rc_lookahead=60 / rc=crf / mbtree=1 / crf=20.0 / qcomp=0.60 / qpmin=0 / qpmax=69 / qpstep=4 / vbv_maxrate=62500 / vbv_bufsize=78125 / crf_max=0.0 / nal_hrd=none / filler=0 / ip_ratio=1.40 / aq=1:1.00
Default                     : Yes
Forced                      : No

Audio #1
ID                          : 2
Format                      : AC-3
Format/Info                 : Audio Coding 3
Format settings, Endianness : Big
Codec ID                    : A_AC3
Duration                    : 2 h 57 min
Bit rate mode               : Constant
Bit rate                    : 640 kb/s
Channel(s)                  : 6 channels
Channel positions           : Front: L C R, Side: L R, LFE
Sampling rate               : 48.0 kHz
Frame rate                  : 31.250 FPS (1536 spf)
Bit depth                   : 16 bits
Compression mode            : Lossy
Stream size                 : 814 MiB (5%)
Title                       : Audio Español Latino AC3 5.1 @640Kbps - Vera
Language                    : Spanish
Service kind                : Complete Main
Default                     : Yes
Forced                      : No

Audio #2
ID                          : 3
Format                      : AAC
Format/Info                 : Advanced Audio Codec
Format profile              : LC
Codec ID                    : A_AAC
Duration                    : 2 h 57 min
Bit rate                    : 529 kb/s
Channel(s)                  : 6 channels
Channel positions           : Front: L C R, Side: L R, LFE
Sampling rate               : 48.0 kHz
Frame rate                  : 46.875 FPS (1024 spf)
Compression mode            : Lossy
Stream size                 : 682 MiB (4%)
Title                       : Audio Inglés AAC 5.1 - Vera
Language                    : English
Default                     : No
Forced                      : No

Text #1
ID                          : 4
Format                      : UTF-8
Codec ID                    : S_TEXT/UTF8
Codec ID/Info               : UTF-8 Plain Text
Duration                    : 1 h 47 min
Bit rate                    : 1 b/s
Count of elements           : 37
Stream size                 : 1.05 KiB (0%)
Title                       : Subtítulos Español Latino - Forzados (SRT) - Vera
Language                    : Spanish
Default                     : Yes
Forced                      : No

Text #2
ID                          : 5
Format                      : UTF-8
Codec ID                    : S_TEXT/UTF8
Codec ID/Info               : UTF-8 Plain Text
Duration                    : 2 h 49 min
Bit rate                    : 29 b/s
Count of elements           : 1279
Stream size                 : 36.7 KiB (0%)
Title                       : Subtítulos Español Latino (SRT) - Vera
Language                    : Spanish
Default                     : No
Forced                      : No

Text #3
ID                          : 6
Format                      : PGS
Muxing mode                 : zlib
Codec ID                    : S_HDMV/PGS
Codec ID/Info               : Picture based subtitle format used on BDs/HD-DVDs
Duration                    : 1 h 47 min
Bit rate                    : 257 b/s
Count of elements           : 74
Stream size                 : 203 KiB (0%)
Title                       : Subtítulos Español Latino - Forzados (PGS) - Vera
Language                    : Spanish
Default                     : No
Forced                      : No

Text #4
ID                          : 7
Format                      : PGS
Muxing mode                 : zlib
Codec ID                    : S_HDMV/PGS
Codec ID/Info               : Picture based subtitle format used on BDs/HD-DVDs
Duration                    : 2 h 49 min
Bit rate                    : 5 642 b/s
Count of elements           : 2602
Stream size                 : 6.85 MiB (0%)
Title                       : Subtítulos Español Latino (PGS) - Vera
Language                    : Spanish
Default                     : No
Forced                      : No

Menu
00:00:00.000                : en:The Wits of Men
00:07:25.528                : en:Courage and a Free Heart
00:16:24.442                : en:The Trouble with Scotland
00:22:00.694                : en:A Nobleman's Rights
00:34:16.888                : en:No Other, Forever
00:39:49.679                : en:Application and Consequences of Laws
00:56:04.987                : en:Gathering to Rebel
01:00:01.264                : en:Ruthless Compromise
01:07:28.044                : en:Madmen and Spies
01:11:51.933                : en:Are You Ready for War
01:19:01.528                : en:Terms and Offers
01:33:03.203                : en:Guardian of Scotland
01:43:44.718                : en:Negotiating with a Princess
01:53:55.454                : en:Unity and Betrayal
01:58:58.465                : en:Lands of Death
02:17:15.477                : en:To Capture a Legend
02:24:18.900                : en:The Pledge of the Bruce
02:28:49.796                : en:The Crown's Price
02:34:12.410                : en:A Queens Plea for Mercy
02:36:32.091                : en:Freedom!
02:46:53.879                : en:Bleed with Me
02:50:43.066                : en:Credits


Imágenes













Descarga

Braveheart.1995.1080p.BluRay.x264.Dual.Latino-Vera
Cita: Mostrar

Contraseña

NO TIENE

Agradecimientos

A Martín Vera

PD1: En vez de extraer el AC3 del audio TrueHD, descubrimos que es mejor convertir el audio TrueHD al formato AAC, donde hay menos perdida de calidad; ya que el TrueHD dobla el peso del rip.

PD2: Al ser un rip medianamente viejo, se usó el preset Very Slow con el Analysis Exhaustive (me=tesa). Esto logra que el rip quede un poco más liviano y con un poco menos de calidad en comparación al Placebo.
descargar peliculas - descargar programas
182 Puntos Score: 8.3/10
Visitas: 2279 Favoritos: 12
Ver los usuarios que votaron...
44 Comentarios Exclusivo|Braveheart (1995) 1080p Very Slow CRF20
Tremendo aporte!!!! Gracias!!!!  
Cita Instituto: Mostrar
q la disfrutes bro gracias x pasarte!  
Muchas gracias, por la pelicula y googledrive
no entiendo mucho, pero suena bien, gracias, bajando inmediatamente para la coleccion  +10
No descargo pelis tan pesadas, pero ahi van sus +10 por el enooorme trabajo, gracias una película que es para ver una y otra y otra vez  
Calidad total...mil gracias
¡Tremendo aportazo amigo! La descargo inmediatamente y muchas gracias, espero sigas subiendo éste tipo de películas, ¿No tendrás Gladiator, Troy o Robin Hood (2010)? Son igual de buenas  

Saludos  
tremendo laburo , pero si pudieran en algun momento subirlo a mega , pues pesa mucho y el navegador descarga una garcha ,
Gracias por los esfuerzos muchachos  . Bajando
Puede publicar la saga rapidos y furiosos en placebo por favor +4
Gracias por el.esfuerzo la probaré en una UHD a ver qué tal va!! Espero q sigannposteando muchas pelis
Muchas Gracias
Buena man siempre impresionando ojala puedas subir "El Patriota" Ext
Muchas Gracias
@Leopulga La descargo nada más porque me parece ver una t-tilla en la segunda captura que compartes, espero verla y ver toda la película tan larga  
Saludos a todos
Cita vegito_ssj: Mostrar

Cita IVAN_HD: Mostrar

Cita itofeddy: Mostrar

Cita nocua: Mostrar

Cita redarremer: Mostrar

Cita lobazo79: Mostrar

Cita yugobanila: Mostrar

Cita Daniel_07: Mostrar

Cita merlim100: Mostrar

Cita elviscoso: Mostrar

Cita elviscoso: Mostrar

Cita elviscoso: Mostrar

Cita jean16: Mostrar

Cita jean16: Mostrar

Cita arturin89: Mostrar

Cita pericos: Mostrar

Cita y0el_89: Mostrar

Cita JNEGRETE9: Mostrar
gracias a todos x pasarse!! espero puedan disfrutar de este clasico!
Cita merlim100: Mostrar
idm bro, usa idm es genial!

Cita JNEGRETE9: Mostrar
la vas a ver de principio a fin, en mi top10 de peliculas!!
Cita Daniel_07: Mostrar
ya las tengo todas ripeadas bro!
Disculpen amigos, hace mucho que no descargo por MyPony, alguien sabe porque descargo algunos archivos de mega y algunos me salen tiempo...? alguien porfa ayudeme
Gracias leopulga por aportar este clasico en esta calidad..  
@Leopulga Genial amigo, espero sigas compartiendo joyitas como ésta, saludos y que estes bien.  
Que se puede decir? Nada. Te doy mi más grande agradecimiento por esta película, siempre la quise en esta calidad, ojalá y sigas subiendo películas clásicas como está y en esta calidad. GRACIAS.
Cita Espinal: Mostrar

Cita xander007: Mostrar

Cita cabrito224: Mostrar

Cita Daniel_07: Mostrar

Cita safir_reXa: Mostrar
gracias x pasarse y los puntos amigos! preparando para mañana american beauty y dead poet society  :
Tremendo loco, muchísimas gracias justo el otro día de hablaba de Braveheart , gracias de verdad seguí subiendo loco.
Cita Redz: Mostrar
gracias a ti x pasarte a agradecer amigo!
Cita Leopulga: Mostrar

Espero mas pelis clásicas como esta, un abrazo.
Gracias Capo @MARTINVERA Descargado y listo para desfrutar la película
Cita AquilesVoy: Mostrar
q disfrutes de esta joya  
Primero te felicito porque se ve que disfrutas los que haces, y segundo por compartir con nosotros este material que sin duda lo habremos de disfrutar.
Cita eltiopi: Mostrar
si bro es mi unico pasatiempo asi tipo freak jajajaj saludos  gracias!
Simplemente grande amigo
Leo , si en un futuro podrías subir la saga de Rocky estaría eternamente agradecido.
he tratado de descargar con idm que me sugeriste pero solo descarga un archivo htm, no se como hacerlo
Muchas gracias  
amigo puedes revisar el link me tira error
todo los enlaces muertos
@Leopulga me lleva...tambien este link esta muerto...llegue tarde de nuevo..
 links borrados  
ya no la volverás a subir???
Para dejar un comentario Registrate! o.. eres ya usuario? Accede!
Facebook Identi