Leopulga
"Ripeos AVC y HEVC solo para coleccionistas."

Estreno-Exclusivo|Life (2017) 1080p Placebo CRF20

Hola, amigos de Identi.li regreso a postear en esta gran comunidad, nada más ni nada menos que películas en la máxima calidad posible imitando al Blu-ray Original.

Esto se consigue mediante una Configurción (CFG) de ripeo exigente llamada Placebo y con un CRF20 que es lo que alcanza a distinguir el ojo humano y dejando unos rips al peso menor posible con calidad me animaría a decir casi como el Blu-ray.

IMPORTANTE: SOMOS UN GRUPO DE ENCODERS, EN ESTE CASO LES TRAIGO LIFE (2017) EN CALIDAD PLACEBO CRF20 RIPEADA POR UNO DEL GRUPO @MARTINVERA, DEJEN SUS AGRADECIMIENTOS HACIA ÉL.


Life (2017) 1080p BluRay x264 DTS Dual Latino - Vera




Sinopsis

Life (2017)

Seis miembros de la tripulación de la Estación Espacial Internacional están a punto de lograr uno de los descubrimientos más importantes en la historia humana: la primera evidencia de vida extraterrestre en Marte. A medida que el equipo comienza a investigar y sus métodos tienen consecuencias inesperadas, la forma viviente demostrará ser más inteligente de lo que cualquiera esperaba.


Ficha Técnica

Fuente: BD50 (USA)
Ripeo: Placebo CRF20
Tiempo de Ripeo: 7 horas
Audios: Español Latino AC3 5.1 @640Kbps (BD) - Inglés DTS 5.1 @1509Kbps (BD)
Subtítulos: Si (SRT/PGS-Español y Forzados)
IMDB: 6.8


MediaInfo

Life (3,57GB)

General
Unique ID                   : 187979687719950720354347449667576486731 (0x8D6B9229E303B0EBA043390425815B4B)
Complete name               : Life.2017.1080p.BluRay.x264.DTS.Dual.Latino-Vera.mkv
Format                      : Matroska
Format version              : Version 4 / Version 2
File size                   : 3.58 GiB
Duration                    : 1 h 43 min
Overall bit rate            : 4 928 kb/s
Encoded date                : UTC 2017-06-17 22:05:33
Writing application         : mkvmerge v12.0.0 ('Trust / Lust') 64bit
Writing library             : libebml v1.3.4 + libmatroska v1.4.5

Video
ID                          : 1
Format                      : AVC
Format/Info                 : Advanced Video Codec
Format profile              : [email protected]
Format settings, CABAC      : Yes
Format settings, ReFrames   : 4 frames
Codec ID                    : V_MPEG4/ISO/AVC
Duration                    : 1 h 43 min
Bit rate                    : 2 760 kb/s
Width                       : 1 920 pixels
Height                      : 1 080 pixels
Display aspect ratio        : 16:9
Frame rate mode             : Constant
Frame rate                  : 23.976 (24000/1001) FPS
Color space                 : YUV
Chroma subsampling          : 4:2:0
Bit depth                   : 8 bits
Scan type                   : Progressive
Bits/(Pixel*Frame)          : 0.056
Stream size                 : 2.00 GiB (56%)
Title                       : Fuente Encodeo: BD50 - Vera
Writing library             : x264 core 150 r2833 df79067
Encoding settings           : cabac=1 / ref=4 / deblock=1:0:0 / analyse=0x3:0x133 / me=tesa / subme=11 / psy=1 / psy_rd=1.00:0.00 / mixed_ref=1 / me_range=24 / chroma_me=1 / trellis=2 / 8x8dct=1 / cqm=0 / deadzone=21,11 / fast_pskip=0 / chroma_qp_offset=-2 / threads=12 / lookahead_threads=3 / sliced_threads=0 / nr=0 / decimate=1 / interlaced=0 / bluray_compat=0 / constrained_intra=0 / bframes=16 / b_pyramid=2 / b_adapt=2 / b_bias=0 / direct=3 / weightb=1 / open_gop=0 / weightp=2 / keyint=240 / keyint_min=23 / scenecut=40 / intra_refresh=0 / rc_lookahead=60 / rc=crf / mbtree=1 / crf=20.0 / qcomp=0.60 / qpmin=0 / qpmax=69 / qpstep=4 / vbv_maxrate=62500 / vbv_bufsize=78125 / crf_max=0.0 / nal_hrd=none / filler=0 / ip_ratio=1.40 / aq=1:1.00
Default                     : Yes
Forced                      : No

Audio #1
ID                          : 2
Format                      : AC-3
Format/Info                 : Audio Coding 3
Format settings, Endianness : Big
Codec ID                    : A_AC3
Duration                    : 1 h 43 min
Bit rate mode               : Constant
Bit rate                    : 640 kb/s
Channel(s)                  : 6 channels
Channel positions           : Front: L C R, Side: L R, LFE
Sampling rate               : 48.0 kHz
Frame rate                  : 31.250 FPS (1536 spf)
Bit depth                   : 16 bits
Compression mode            : Lossy
Stream size                 : 476 MiB (13%)
Title                       : Audio Español Latino AC3 5.1 @640Kbps - Vera
Language                    : Spanish
Service kind                : Complete Main
Default                     : Yes
Forced                      : No

Audio #2
ID                          : 3
Format                      : DTS
Format/Info                 : Digital Theater Systems
Mode                        : 16
Format settings, Endianness : Big
Codec ID                    : A_DTS
Duration                    : 1 h 43 min
Bit rate mode               : Constant
Bit rate                    : 1 509 kb/s
Channel(s)                  : 6 channels
Channel positions           : Front: L C R, Side: L R, LFE
Sampling rate               : 48.0 kHz
Frame rate                  : 93.750 FPS (512 spf)
Bit depth                   : 24 bits
Compression mode            : Lossy
Stream size                 : 1.10 GiB (31%)
Title                       : Audio Inglés DTS 5.1 @1509Kbps - Vera
Language                    : English
Default                     : No
Forced                      : No

Text #1
ID                          : 4
Format                      : UTF-8
Codec ID                    : S_TEXT/UTF8
Codec ID/Info               : UTF-8 Plain Text
Duration                    : 1 h 33 min
Bit rate                    : 1 b/s
Count of elements           : 30
Stream size                 : 713 Bytes (0%)
Title                       : Subtítulos Español Latino - Forzados (SRT) - Vera
Language                    : Spanish
Default                     : Yes
Forced                      : No

Text #2
ID                          : 5
Format                      : UTF-8
Codec ID                    : S_TEXT/UTF8
Codec ID/Info               : UTF-8 Plain Text
Duration                    : 1 h 33 min
Bit rate                    : 44 b/s
Count of elements           : 968
Stream size                 : 30.5 KiB (0%)
Title                       : Subtítulos Español Latino (SRT) - Vera
Language                    : Spanish
Default                     : No
Forced                      : No

Text #3
ID                          : 6
Format                      : PGS
Muxing mode                 : zlib
Codec ID                    : S_HDMV/PGS
Codec ID/Info               : Picture based subtitle format used on BDs/HD-DVDs
Duration                    : 1 h 41 min
Bit rate                    : 16.9 kb/s
Count of elements           : 1943
Stream size                 : 12.2 MiB (0%)
Title                       : Subtítulos Español Latino (PGS) - Vera
Language                    : Spanish
Default                     : No
Forced                      : No

Menu
00:00:00.000                : en:Chapter 1
00:09:32.864                : en:Chapter 2
00:13:13.084                : en:Chapter 3
00:15:36.894                : en:Chapter 4
00:19:35.341                : en:Chapter 5
00:24:57.454                : en:Chapter 6
00:34:36.992                : en:Chapter 7
00:40:45.109                : en:Chapter 8
00:43:59.303                : en:Chapter 9
00:52:21.805                : en:Chapter 10
00:58:33.927                : en:Chapter 11
01:06:37.785                : en:Chapter 12
01:11:43.257                : en:Chapter 13
01:17:50.875                : en:Chapter 14
01:22:39.621                : en:Chapter 15
01:28:34.309                : en:Chapter 16


Imágenes














Descarga

Life.2017.1080p.BluRay.x264.DTS.Dual.Latino-Vera
Cita: Mostrar


Contraseña

NO TIENE

Agradecimientos

A Martín Vera

PD: Martín está subiendo la saga de X-Men. Preparen espacio en el disco
descargar peliculas - descargar programas
150 Puntos Score: 8.8/10
Visitas: 2580 Favoritos: 6
Ver los usuarios que votaron...
20 Comentarios Estreno-Exclusivo|Life (2017) 1080p Placebo CRF20
Si la grabo en un dvd como data ¿Por que el blu ray no me deja adelantarla a mas "X" o pasarla por capitulos?
bajando toma +10
que laburo, gracias por compartir!!
Cita Espinal: Mostrar

Cita Hazzus: Mostrar

Cita ticosexy: Mostrar
q la disfruten, gracias x pasarse! con respecto a tus duda amigo hazzus no estoy metido tanto en ese tema ya que yo solo conecto mi hdd externo al tele para disfrutar las movies  
Cita pitusalta: Mostrar
gracias a ti x pasarte  
Gracias, esperaba esta película, en esta calidad    
Se agradecen de sobremanera sus aportes
gracias muy buena peli!!!! en verdad gracias.
casi me caga el cambio de titulo y la vuelvo a bajar, gracias por poner capturas y safar .
Al fiiiiiiiin Te amo Leito graciiiiaaaas!!!! Y gracias a Martin también  y esperando con ansias la saga de x men!!! Ojala también puedan subir A cure for Wellness que también es estreno.. No te vayas nunca leito y si te vas llevameee jajajaja     nadie les gana son los #1 de largo!!! @Leopulga
gracias por todo su esfuerzo y por compartirlo  
Gracias por tus aportes bro un saludo
Excelente aporte muchas gracias por compartir en gran calidad y audio dual
Saludos!
Genial, pero el link ya no sirve
gracias pero el link murio
Para dejar un comentario Registrate! o.. eres ya usuario? Accede!
Facebook Identi