libardomm
"I read a book one day and my whole life was changed. — Orhan Pamuk"

Adios a las Armas- Ernest Hemingway [1080p]

Adios a las Armas- Ernest Hemingway [1080p]

No amaba a Catherine Barkley, ni se le ocurría que pudiera amarla. Aquello era como el bridge, un juego donde te largas a hablar en vez de manejar las cartas. Eso pensaba el teniente americano Frederic Henry, conductor de ambulancias en el frente italiano durante la Primera Guerra Mundial, al poco de conocer a esta bella enfermera británica. Lo que parecía un juego se convirtió en pasión intensa, mientras la guerra lo arrasaba todo y los hombres desfilaban bajo la lluvia, agotados y hambrientos, sin pensar más que en huir de la muerte. Inspirada en las vivencias de Hemingway, Adiós a las armas es ya un clásico de la literatura universal y uno de los mejores retratos de la voluntad humana.


General
Complete name                  : C:\Users\Usuario\Downloads\A Farewell to Arms (1957) 1080p\A Farewell to Arms (1957) 1080p\A.Farewell.to.Arms.1957.mp4
Format                         : MPEG-4
Format profile                 : Base Media
Codec ID                       : isom (isom/avc1)
File size                      : 1.24 GiB
Duration                       : 1 h 28 min
Overall bit rate mode          : Variable
Overall bit rate               : 2 005 kb/s
Encoded date                   : UTC 2014-09-25 10:05:47
Tagged date                    : UTC 2014-09-25 10:05:47

Video
ID                             : 1
Format                         : AVC
Format/Info                    : Advanced Video Codec
Format profile                 : [email protected]
Format settings, CABAC         : Yes
Format settings, ReFrames      : 4 frames
Codec ID                       : avc1
Codec ID/Info                  : Advanced Video Coding
Duration                       : 1 h 28 min
Bit rate                       : 1 907 kb/s
Maximum bit rate               : 14.5 Mb/s
Width                          : 1 440 pixels
Height                         : 1 080 pixels
Display aspect ratio           : 4:3
Frame rate mode                : Constant
Frame rate                     : 24.000 FPS
Color space                    : YUV
Chroma subsampling             : 4:2:0
Bit depth                      : 8 bits
Scan type                      : Progressive
Bits/(Pixel*Frame)             : 0.051
Stream size                    : 1.18 GiB (95%)
Writing library                : x264 core 142 r2409 d6b4e63
Encoding settings              : cabac=1 / ref=4 / deblock=1:-1:-1 / analyse=0x3:0x133 / me=umh / subme=9 / psy=1 / psy_rd=1.00:0.15 / mixed_ref=1 / me_range=24 / chroma_me=1 / trellis=2 / 8x8dct=1 / cqm=0 / deadzone=21,11 / fast_pskip=0 / chroma_qp_offset=-3 / threads=60 / lookahead_threads=5 / sliced_threads=0 / nr=0 / decimate=1 / interlaced=0 / bluray_compat=0 / constrained_intra=0 / bframes=3 / b_pyramid=2 / b_adapt=2 / b_bias=0 / direct=3 / weightb=1 / open_gop=0 / weightp=2 / keyint=250 / keyint_min=24 / scenecut=40 / intra_refresh=0 / rc_lookahead=60 / rc=2pass / mbtree=1 / bitrate=1907 / ratetol=1.0 / qcomp=0.60 / qpmin=0 / qpmax=69 / qpstep=4 / cplxblur=20.0 / qblur=0.5 / vbv_maxrate=31250 / vbv_bufsize=31250 / nal_hrd=none / filler=0 / ip_ratio=1.40 / aq=1:1.00
Encoded date                   : UTC 2014-09-25 10:05:47
Tagged date                    : UTC 2014-09-25 10:05:58
Color range                    : Limited
Color primaries                : BT.709
Matrix coefficients            : BT.709

Audio
ID                             : 2
Format                         : AAC
Format/Info                    : Advanced Audio Codec
Format profile                 : LC
Codec ID                       : 40
Duration                       : 1 h 28 min
Bit rate mode                  : Variable
Bit rate                       : 94.0 kb/s
Maximum bit rate               : 100 kb/s
Channel(s)                     : 2 channels
Channel positions              : Front: L R
Sampling rate                  : 48.0 kHz
Frame rate                     : 46.875 FPS (1024 spf)
Compression mode               : Lossy
Stream size                    : 59.7 MiB (5%)
Language                       : English
Encoded date                   : UTC 2014-09-25 10:05:57
Tagged date                    : UTC 2014-09-25 10:05:58








descargar peliculas - descargar programas
60 Puntos Score: 8.6/10
Visitas: 957 Favoritos: 2
Ver los usuarios que votaron...
4 Comentarios Adios a las Armas- Ernest Hemingway [1080p]
!! LA PELICULA !!...Muy bueno..
Excelente! Gracias!  
Para dejar un comentario Registrate! o.. eres ya usuario? Accede!
Facebook Identi