libardomm
"I read a book one day and my whole life was changed. — Orhan Pamuk"

Ensayo sobre la ceguera - Jose Saramago [1080p]

Ensayo sobre la ceguera - Jose  Saramago
[Blindness 2008
[A ciegas 2008]
[1080]


Adaptación de "Ensayo Sobre La Ceguera" del escritor portugués José Saramago.
Comienza con un flash. Un hombre se queda ciego repentinamente cuando conduce del trabajo a casa. De repente, todo su mundo se convierte en una neblina lechosa e inquietante. Una tras otra, cada persona que se cruza ? su mujer, su médico, incluso el aparentemente buen samaritano que le lleva a su casa ? correrá la misma suerte en un momento dado. A medida que se extiende el contagio y el pánico y la paranoia se apoderan de la ciudad, las víctimas de la ceguera repentina, de ?La enfermedad blanca?, son confinados y sometidos a cuarentena en un psiquiátrico abandonado en donde cualquier parecido con la vida normal empieza a desvanecerse.
Dentro del hospital en cuarentena hay un testigo secreto: una mujer (Julianne Moore) que finge estar ciega para poder estar junto a su marido (Mark Ruffalo). Armada de un creciente valor y con voluntad de sobrevivir, llevará a una improvisada familia de siete personas por un viaje a través del terror y el amor, la depravación y la belleza, la guerra y el asombro, para salir del hospital y volver a una ciudad devastada en la que pueden ser la única esperanza. Su viaje pone de manifiesto la peligrosa fragilidad de la sociedad y el estimulante espíritu de la humanidad.

General
Complete name                  : C:UsersUsuarioDownloadsblindness 2008 1080p brrip x264 1 80gb yifyblindness 2008 1080p brrip x264 1 80gb yifyBlindness.2008.mp4
Format                         : MPEG-4
Format profile                 : Base Media
Codec ID                       : isom (isom/avc1)
File size                      : 1.80 GiB
Duration                       : 2 h 1 min
Overall bit rate mode          : Variable
Overall bit rate               : 2 131 kb/s
Encoded date                   : UTC 2012-08-26 17:36:33
Tagged date                    : UTC 2012-08-26 17:36:33

Video
ID                             : 1
Format                         : AVC
Format/Info                    : Advanced Video Codec
Format profile                 : High@L4
Format settings, CABAC         : Yes
Format settings, ReFrames      : 4 frames
Codec ID                       : avc1
Codec ID/Info                  : Advanced Video Coding
Duration                       : 2 h 1 min
Bit rate                       : 2 032 kb/s
Maximum bit rate               : 18.1 Mb/s
Width                          : 1 920 pixels
Height                         : 1 080 pixels
Display aspect ratio           : 16:9
Frame rate mode                : Constant
Frame rate                     : 23.976 (24000/1001) FPS
Color space                    : YUV
Chroma subsampling             : 4:2:0
Bit depth                      : 8 bits
Scan type                      : Progressive
Bits/(Pixel*Frame)             : 0.041
Stream size                    : 1.72 GiB (95%)
Writing library                : x264 core 125 r2200 999b753
Encoding settings              : cabac=1 / ref=4 / deblock=1:0:0 / analyse=0x3:0x113 / me=hex / subme=7 / psy=1 / psy_rd=1.00:0.00 / mixed_ref=1 / me_range=16 / chroma_me=1 / trellis=1 / 8x8dct=1 / cqm=0 / deadzone=21,11 / fast_pskip=1 / chroma_qp_offset=-2 / threads=6 / lookahead_threads=1 / sliced_threads=0 / nr=0 / decimate=1 / interlaced=0 / bluray_compat=0 / constrained_intra=0 / bframes=8 / b_pyramid=2 / b_adapt=1 / b_bias=0 / direct=1 / weightb=1 / open_gop=0 / weightp=2 / keyint=240 / keyint_min=23 / scenecut=40 / intra_refresh=0 / rc_lookahead=40 / rc=2pass / mbtree=1 / bitrate=2032 / ratetol=1.0 / qcomp=0.60 / qpmin=10 / qpmax=51 / qpstep=4 / cplxblur=20.0 / qblur=0.5 / ip_ratio=1.40 / aq=1:1.00
Encoded date                   : UTC 2012-08-26 17:36:33
Tagged date                    : UTC 2012-08-26 17:39:20

Audio
ID                             : 2
Format                         : AAC
Format/Info                    : Advanced Audio Codec
Format profile                 : LC
Codec ID                       : 40
Duration                       : 2 h 1 min
Bit rate mode                  : Variable
Bit rate                       : 96.0 kb/s
Maximum bit rate               : 146 kb/s
Channel(s)                     : 2 channels
Channel positions              : Front: L R
Sampling rate                  : 48.0 kHz
Frame rate                     : 46.875 FPS (1024 spf)
Compression mode               : Lossy
Stream size                    : 83.1 MiB (5%)
Language                       : English
Encoded date                   : UTC 2012-08-26 17:39:14
Tagged date                    : UTC 2012-08-26 17:39:20












peliculas - programas
40 Puntos Score: 10/10
Visitas: 841 Favoritos: 3
Ver los usuarios que votaron...
6 Comentarios Ensayo sobre la ceguera - Jose Saramago [1080p]
Gracias por todos sus (muy buenos) aportes!

 
Gran peli! la recomiendo para quien lo la haya visto. Gracias por compartir
Para dejar un comentario Registrate! o.. eres ya usuario? Accede!
Facebook Identi