libardomm
"I read a book one day and my whole life was changed. — Orhan Pamuk"

El viejo y el Mar-Ernest Hemingway [Dos versiones]

El viejo y el Mar-Ernest Hemingway 1958 [720] x264 DVDR
[Ingles Subtitulado]
[Español de españa]

El viejo y el mar es uno de los relatos más bellos que jamás se han escrito. En la cúspide de su maestría, Hemingway alumbró una historia en cuya sencillez vibra una inagotable emoción: en Cuba, un viejo pescador, ya en el crepúsculo de su vida, pobre y sin suerte, cansado de regresar cada día sin pesca, emprende una última y arriesgada travesía. Cuando al fin logre dar con una gran pieza, tendrá que luchar contra ella denodadamente.  Y el regreso a puerto, con el acoso de los elementos y los tiburones, se convierte en una última prueba. Como un rey mendigo, aureolado por su imbatible dignidad, el viejo pescador culmina finalmente su destino.



General
Unique ID                      : 168519263461427755498422400813680380436 (0x7EC7A12B8AB0DD99EEF2B0CF99A94A14)
Complete name                  : C:UsersUsuarioDownloadsThe Old Man and the SeaThe Old Man and the SeaEl viejo y el mar (1958) DVDRip Dual by jose1969 (exploradoresp2p.com).mkv
Format                         : Matroska
Format version                 : Version 2
File size                      : 1.10 GiB
Duration                       : 1 h 22 min
Overall bit rate               : 1 909 kb/s
Encoded date                   : UTC
Writing application            : HandBrake 0.10.2 2015060900
Writing library                : Lavf55.12.0 / Lavf55.12.0

Video
ID                             : 1
Format                         : AVC
Format/Info                    : Advanced Video Codec
Format profile                 : [email protected]
Format settings, CABAC         : Yes
Format settings, ReFrames      : 4 frames
Codec ID                       : V_MPEG4/ISO/AVC
Duration                       : 1 h 22 min
Bit rate                       : 1 500 kb/s
Width                          : 702 pixels
Height                         : 574 pixels
Display aspect ratio           : 4:3
Original display aspect ratio  : 4:3
Frame rate mode                : Constant
Frame rate                     : 25.000 FPS
Color space                    : YUV
Chroma subsampling             : 4:2:0
Bit depth                      : 8 bits
Scan type                      : Progressive
Bits/(Pixel*Frame)             : 0.149
Stream size                    : 880 MiB (78%)
Writing library                : x264 core 142 r2479 dd79a61
Encoding settings              : cabac=1 / ref=1 / deblock=1:0:0 / analyse=0x1:0x111 / me=hex / subme=2 / psy=1 / psy_rd=1.00:0.00 / mixed_ref=0 / me_range=16 / chroma_me=1 / trellis=0 / 8x8dct=0 / cqm=0 / deadzone=21,11 / fast_pskip=1 / chroma_qp_offset=0 / threads=6 / lookahead_threads=2 / sliced_threads=0 / nr=0 / decimate=1 / interlaced=0 / bluray_compat=0 / constrained_intra=0 / bframes=3 / b_pyramid=2 / b_adapt=1 / b_bias=0 / direct=1 / weightb=1 / open_gop=0 / weightp=1 / keyint=250 / keyint_min=25 / scenecut=40 / intra_refresh=0 / rc_lookahead=10 / rc=abr / mbtree=1 / bitrate=1500 / ratetol=1.0 / qcomp=0.60 / qpmin=0 / qpmax=69 / qpstep=4 / vbv_maxrate=20000 / vbv_bufsize=25000 / nal_hrd=none / filler=0 / ip_ratio=1.40 / aq=1:1.00
Default                        : Yes
Forced                         : No
Color range                    : Limited
Color primaries                : BT.601 PAL
Transfer characteristics       : BT.709
Matrix coefficients            : BT.601

Audio #1
ID                             : 2
Format                         : AC-3
Format/Info                    : Audio Coding 3
Mode extension                 : CM (complete main)
Format settings, Endianness    : Big
Codec ID                       : A_AC3
Duration                       : 1 h 22 min
Bit rate mode                  : Constant
Bit rate                       : 192 kb/s
Channel(s)                     : 2 channels
Channel positions              : Front: L R
Sampling rate                  : 48.0 kHz
Frame rate                     : 31.250 FPS (1536 spf)
Bit depth                      : 16 bits
Compression mode               : Lossy
Stream size                    : 114 MiB (10%)
Title                          : Stereo
Language                       : Spanish
Default                        : Yes
Forced                         : No

Audio #2
ID                             : 3
Format                         : AC-3
Format/Info                    : Audio Coding 3
Mode extension                 : CM (complete main)
Format settings, Endianness    : Big
Codec ID                       : A_AC3
Duration                       : 1 h 22 min
Bit rate mode                  : Constant
Bit rate                       : 192 kb/s
Channel(s)                     : 2 channels
Channel positions              : Front: L R
Sampling rate                  : 48.0 kHz
Frame rate                     : 31.250 FPS (1536 spf)
Bit depth                      : 16 bits
Compression mode               : Lossy
Stream size                    : 114 MiB (10%)
Title                          : Stereo
Language                       : English
Default                        : No
Forced                         : No

Text #1
ID                             : 4
Format                         : VobSub
Codec ID                       : S_VOBSUB
Codec ID/Info                  : Picture based subtitle format used on DVDs
Language                       : Spanish
Default                        : No
Forced                         : No

Text #2
ID                             : 5
Format                         : VobSub
Codec ID                       : S_VOBSUB
Codec ID/Info                  : Picture based subtitle format used on DVDs
Language                       : English
Default                        : No
Forced                         : No

Menu
00:00:00.000                   : :Chapter 1
00:00:00.240                   : :Chapter 2
00:10:00.400                   : :Chapter 3
00:20:00.400                   : :Chapter 4
00:30:00.080                   : :Chapter 5
00:40:00.240                   : :Chapter 6
00:50:00.400                   : :Chapter 7
01:00:00.080                   : :Chapter 8
01:10:00.080                   : :Chapter 9
01:20:00.400                   : :Chapter 10







Actualización: 
 "El viejo y el mar"  1990:



descargar peliculas - descargar programas
100 Puntos Score: 9.1/10
Visitas: 1122 Favoritos: 5
Ver los usuarios que votaron...
14 Comentarios El viejo y el Mar-Ernest Hemingway [Dos versiones]
que excelente aporte se agradece
Jajajaja La imagen de contraseña
se agradece

bajada
Muchas gracias, un excelente aporte, la vi hace ya mucho tiempo y espero lograr que mis hijas también la vea.
jajajaj a todos los que les he preguntado dicen que el libro es una canción de cuna.
hola @libardomm . excelente aporte. gracias. y disculpame la molestia,  por casualidad tendras esta pelicula pero la version de 1990? protagonisada por Anthony Quinn? le gusta mucho a mi viejo, y queria ver si se la consigo. si vos no la tenes y sabes donde puedo conseguirla agradeceria el dato. gracias de nuevo y saludos.
@Marote Listo. Ya la puse en el post.
Un saludo.
@libardomm hermano, estoy en deuda. mil gracias.
Muchas gracias por esta magnifica pelicula, la descargare en la brevedad posible para verla junto con otras que has posteado...No te puntee antes porque no habia tenido internet desde el Lunes y me ha llegado hace un rato...Muchas gracias, Saludos!!  
Muchas gracias por la película, recuerdo que de chico leí el libro, veamos que tal la película!  
Hola amigo!! la pelicula esta en español latino o de españa?
Para dejar un comentario Registrate! o.. eres ya usuario? Accede!
Facebook Identi