libardomm
"I read a book one day and my whole life was changed. — Orhan Pamuk"

Del amor y otros demonios- G G Marquez x264

Del Amor y Otros Demonios -
Gabriel Garcia Marquez x264 DVDRip


En una época de inquisición y esclavitud, Sierva María quiere saber a qué saben los besos. Tiene 13 años, es hija de marqueses y fue criada por esclavos africanos en la Cartagena de Indias colonial.
Cuando un perro rabioso la muerde, el obispo la cree endemoniada y ordena a Cayetano, su pupilo, que la exorcice. El cura y la niña serán seducidos por un demonio más poderoso que la fè y la razón.
Con una mirada personal e intimista y un lenguaje que recuerda la pintura del Renacimiento “Del amor y otros demonios” cuenta una de las más provocadoras historias de amor de Gabriel García Márquez (Nóbel de Literatura 1982).

General
Complete name                  : C:\Users\Usuario\Downloads\[SceneLovers]-Del Amor Y Otros Demonios 2009 DVDRip Xvid-Scofacion\delamor.mp4
Format                         : MPEG-4
Format profile                 : Base Media / Version 2
Codec ID                       : mp42 (isom/iso2/avc1/mp41)
File size                      : 387 MiB
Duration                       : 1 h 38 min
Overall bit rate mode          : Variable
Overall bit rate               : 547 kb/s
Movie name                     : Del.Amor.Y.Otros.Demonios.2010.CUSTOM.Audio.Latino-PowerFTP.Title1.DVDRip
Encoded date                   : UTC 2036-02-06 06:28:16
Tagged date                    : UTC 2036-02-06 06:28:16
Writing application            : HandBrake 0.10.2 2015060900

Video
ID                             : 1
Format                         : AVC
Format/Info                    : Advanced Video Codec
Format profile                 : [email protected]
Format settings, CABAC         : Yes
Format settings, ReFrames      : 4 frames
Codec ID                       : avc1
Codec ID/Info                  : Advanced Video Coding
Duration                       : 1 h 38 min
Bit rate                       : 380 kb/s
Width                          : 656 pixels
Height                         : 368 pixels
Display aspect ratio           : 16:9
Frame rate mode                : Variable
Frame rate                     : 23.755 FPS
Minimum frame rate             : 11.987 FPS
Maximum frame rate             : 23.981 FPS
Color space                    : YUV
Chroma subsampling             : 4:2:0
Bit depth                      : 8 bits
Scan type                      : Progressive
Bits/(Pixel*Frame)             : 0.066
Stream size                    : 269 MiB (69%)
Writing library                : x264 core 142 r2479 dd79a61
Encoding settings              : cabac=1 / ref=1 / deblock=1:0:0 / analyse=0x1:0x111 / me=hex / subme=2 / psy=1 / psy_rd=1.00:0.00 / mixed_ref=0 / me_range=16 / chroma_me=1 / trellis=0 / 8x8dct=0 / cqm=0 / deadzone=21,11 / fast_pskip=1 / chroma_qp_offset=0 / threads=6 / lookahead_threads=2 / sliced_threads=0 / nr=0 / decimate=1 / interlaced=0 / bluray_compat=0 / constrained_intra=0 / bframes=3 / b_pyramid=2 / b_adapt=1 / b_bias=0 / direct=1 / weightb=1 / open_gop=0 / weightp=1 / keyint=240 / keyint_min=24 / scenecut=40 / intra_refresh=0 / rc_lookahead=10 / rc=crf / mbtree=1 / crf=20.0 / qcomp=0.60 / qpmin=0 / qpmax=69 / qpstep=4 / vbv_maxrate=20000 / vbv_bufsize=25000 / crf_max=0.0 / nal_hrd=none / filler=0 / ip_ratio=1.40 / aq=1:1.00
Encoded date                   : UTC 2036-02-06 06:28:16
Tagged date                    : UTC 2036-02-06 06:28:16
Color range                    : Limited
Color primaries                : BT.601 NTSC
Transfer characteristics       : BT.709
Matrix coefficients            : BT.601

Audio
ID                             : 2
Format                         : AAC
Format/Info                    : Advanced Audio Codec
Format profile                 : LC
Codec ID                       : 40
Duration                       : 1 h 38 min
Bit rate mode                  : Variable
Bit rate                       : 160 kb/s
Channel(s)                     : 2 channels
Channel positions              : Front: L R
Sampling rate                  : 48.0 kHz
Frame rate                     : 46.875 FPS (1024 spf)
Compression mode               : Lossy
Stream size                    : 113 MiB (29%)
Title                          : Stereo / Stereo
Default                        : Yes
Alternate group                : 1
Encoded date                   : UTC 2036-02-06 06:28:16
Tagged date                    : UTC 2036-02-06 06:28:16















peliculas - programas
70 Puntos Score: 10/10
Visitas: 1296 Favoritos: 6
Ver los usuarios que votaron...
7 Comentarios Del amor y otros demonios- G G Marquez x264
muchas gracias!  
muchas gracias!!!
wow, pero no me permite agregar los enlaces....  
Para dejar un comentario Registrate! o.. eres ya usuario? Accede!
Facebook Identi