libardomm
"I read a book one day and my whole life was changed. — Orhan Pamuk"

Cronica de una Muerte Anunciada-G G Marquez x264

Crónica de una Muerte Anunciada-
Gabriel Garcia Marquez x264 DVDRip 


Un viejo cronista visita¸ después de muchos años¸ el escenario de esta trágica historia: un pueblo tropical¸ de clima ardiente¸ a la orilla de un gran río¸ donde no pasaba nada hasta que llegó el misterioso Bayardo San Román y enamoró a su más hermosa doncella: Ángela Vicario. Sólo que no era virgen¸ como lo reclamó el indignado novio al devolverla a su familia en la misma noche de bodas. La conmoción fue inmensa. Los gemelos Pedro y Pablo Vicario obligaron a su hermana a confesar el nombre del culpable de su deshonra: Santiago Nassar¸ y no descansaron hasta vengar el agravio con sangre¸ ante la mirada indiferente de casi todos.
General
Complete name                  : E:\Datos\Descargas Jdownloader\Cronica.de.una.muerte\CronicaLibardomm.mp4
Format                         : MPEG-4
Format profile                 : Base Media / Version 2
Codec ID                       : mp42 (isom/iso2/avc1/mp41)
File size                      : 968 MiB
Duration                       : 1 h 50 min
Overall bit rate mode          : Variable
Overall bit rate               : 1 228 kb/s
Encoded date                   : UTC 2036-02-06 06:28:16
Tagged date                    : UTC 2036-02-06 06:28:16
Writing application            : HandBrake 0.10.2 2015060900

Video
ID                             : 1
Format                         : AVC
Format/Info                    : Advanced Video Codec
Format profile                 : [email protected]
Format settings, CABAC         : Yes
Format settings, ReFrames      : 4 frames
Codec ID                       : avc1
Codec ID/Info                  : Advanced Video Coding
Duration                       : 1 h 50 min
Bit rate                       : 1 061 kb/s
Width                          : 574 pixels
Height                         : 432 pixels
Display aspect ratio           : 4:3
Frame rate mode                : Variable
Frame rate                     : 23.976 (24000/1001) FPS
Minimum frame rate             : 23.974 FPS
Maximum frame rate             : 23.981 FPS
Color space                    : YUV
Chroma subsampling             : 4:2:0
Bit depth                      : 8 bits
Scan type                      : Progressive
Bits/(Pixel*Frame)             : 0.178
Stream size                    : 836 MiB (86%)
Writing library                : x264 core 142 r2479 dd79a61
Encoding settings              : cabac=1 / ref=1 / deblock=1:0:0 / analyse=0x1:0x111 / me=hex / subme=2 / psy=1 / psy_rd=1.00:0.00 / mixed_ref=0 / me_range=16 / chroma_me=1 / trellis=0 / 8x8dct=0 / cqm=0 / deadzone=21,11 / fast_pskip=1 / chroma_qp_offset=0 / threads=6 / lookahead_threads=2 / sliced_threads=0 / nr=0 / decimate=1 / interlaced=0 / bluray_compat=0 / constrained_intra=0 / bframes=3 / b_pyramid=2 / b_adapt=1 / b_bias=0 / direct=1 / weightb=1 / open_gop=0 / weightp=1 / keyint=240 / keyint_min=24 / scenecut=40 / intra_refresh=0 / rc_lookahead=10 / rc=crf / mbtree=1 / crf=20.0 / qcomp=0.60 / qpmin=0 / qpmax=69 / qpstep=4 / vbv_maxrate=20000 / vbv_bufsize=25000 / crf_max=0.0 / nal_hrd=none / filler=0 / ip_ratio=1.40 / aq=1:1.00
Encoded date                   : UTC 2036-02-06 06:28:16
Tagged date                    : UTC 2036-02-06 06:28:16
Color range                    : Limited
Color primaries                : BT.601 NTSC
Transfer characteristics       : BT.709
Matrix coefficients            : BT.601

Audio
ID                             : 2
Format                         : AAC
Format/Info                    : Advanced Audio Codec
Format profile                 : LC
Codec ID                       : 40
Duration                       : 1 h 50 min
Bit rate mode                  : Variable
Bit rate                       : 160 kb/s
Channel(s)                     : 2 channels
Channel positions              : Front: L R
Sampling rate                  : 48.0 kHz
Frame rate                     : 46.875 FPS (1024 spf)
Compression mode               : Lossy
Stream size                    : 127 MiB (13%)
Title                          : Stereo / Stereo
Default                        : Yes
Alternate group                : 1
Encoded date                   : UTC 2036-02-06 06:28:16
Tagged date                    : UTC 2036-02-06 06:28:16

 






descargar peliculas - descargar programas
110 Puntos Score: 9.2/10
Visitas: 1999 Favoritos: 4
Ver los usuarios que votaron...
6 Comentarios Cronica de una Muerte Anunciada-G G Marquez x264
Gracias por compartir, precisamente iba a preguntar por esta cinta!!
Perfecto hermano cine de nuestro país sin palabras, gracias
exelente aporte
que buenas pelis
+10 para cada peli
grandes aportes
Para dejar un comentario Registrate! o.. eres ya usuario? Accede!
Facebook Identi