Leopulga
"Ripeos AVC y HEVC solo para coleccionistas."

Estreno-Exclusivo|John Wick Chapter 2 (2017) 1080p




Esto se consigue mediante una Configurción (CFG) de ripeo exigente llamada Placebo y con un CRF20 que es lo que alcanza a distinguir el ojo humano y dejando unos rips al peso menor posible con calidad me animaría a decir casi como el Blu-ray.

IMPORTANTE: SOMOS UN GRUPO DE ENCODERS, EN ESTE CASO LES TRAIGO JOHN WICK CHAPTER 2 (2017) EN CALIDAD PLACEBO CRF20 RIPEADA POR UNO DEL GRUPO @MARTINVERA, DEJEN SUS AGRADECIMIENTOS HACIA ÉL.


John Wick: Chapter 2 (2017) 1080p BluRay x264 Dual Latino




Sinopsis

El legendario asesino John Wick (Keanu Reeves) se ve obligado a salir del retiro por un ex-asociado que planea obtener el control de un misterioso grupo internacional de asesinos. Obligado a ayudarlo por un juramento de sangre, John emprende un viaje a Roma lleno de adrenalina estremecedora para pelear contra los asesinos más peligrosos del mundo.
Ficha Técnica

Fuente: BD50 (USA)
Ripeo: Placebo CRF20
Tiempo de Ripeo: 6 horas
Audios: Español Latino AC3 (BD) - Inglés AAC (BD)
Subtítulos: Si (SRT/PGS-Español y Forzados)
IMDB: 7.9


MediaInfo

General
Unique ID                   : 175982125310519288303439223697088078600 (0x8464ECAACD8305408A2E0C0D443A6308)
Complete name               : John.Wick.Chapter.2.2017.1080p.BluRay.x264.Dual.Latino-Vera.mkv
Format                      : Matroska
Format version              : Version 4 / Version 2
File size                   : 4.08 GiB
Duration                    : 2 h 2 min
Overall bit rate            : 4 770 kb/s
Encoded date                : UTC 2017-06-05 17:04:01
Writing application         : mkvmerge v12.0.0 ('Trust / Lust') 64bit
Writing library             : libebml v1.3.4 + libmatroska v1.4.5

Video
ID                          : 1
Format                      : AVC
Format/Info                 : Advanced Video Codec
Format profile              : High@L4.1
Format settings, CABAC      : Yes
Format settings, ReFrames   : 4 frames
Codec ID                    : V_MPEG4/ISO/AVC
Duration                    : 2 h 2 min
Bit rate                    : 3 601 kb/s
Width                       : 1 920 pixels
Height                      : 1 080 pixels
Display aspect ratio        : 16:9
Frame rate mode             : Constant
Frame rate                  : 23.976 (24000/1001) FPS
Color space                 : YUV
Chroma subsampling          : 4:2:0
Bit depth                   : 8 bits
Scan type                   : Progressive
Bits/(Pixel*Frame)          : 0.072
Stream size                 : 3.08 GiB (76%)
Title                       : Fuente Encodeo: BD50 - Vera
Writing library             : x264 core 148 r2744 b97ae06
Encoding settings           : cabac=1 / ref=4 / deblock=1:0:0 / analyse=0x3:0x133 / me=tesa / subme=11 / psy=1 / psy_rd=1.00:0.00 / mixed_ref=1 / me_range=24 / chroma_me=1 / trellis=2 / 8x8dct=1 / cqm=0 / deadzone=21,11 / fast_pskip=0 / chroma_qp_offset=-2 / threads=12 / lookahead_threads=3 / sliced_threads=0 / nr=0 / decimate=1 / interlaced=0 / bluray_compat=0 / constrained_intra=0 / bframes=16 / b_pyramid=2 / b_adapt=2 / b_bias=0 / direct=3 / weightb=1 / open_gop=0 / weightp=2 / keyint=240 / keyint_min=23 / scenecut=40 / intra_refresh=0 / rc_lookahead=60 / rc=crf / mbtree=1 / crf=20.0 / qcomp=0.60 / qpmin=0 / qpmax=69 / qpstep=4 / vbv_maxrate=62500 / vbv_bufsize=78125 / crf_max=0.0 / nal_hrd=none / filler=0 / ip_ratio=1.40 / aq=1:1.00
Default                     : Yes
Forced                      : No

Audio #1
ID                          : 2
Format                      : AC-3
Format/Info                 : Audio Coding 3
Format settings, Endianness : Big
Codec ID                    : A_AC3
Duration                    : 2 h 2 min
Bit rate mode               : Constant
Bit rate                    : 640 kb/s
Channel(s)                  : 6 channels
Channel positions           : Front: L C R, Side: L R, LFE
Sampling rate               : 48.0 kHz
Frame rate                  : 31.250 FPS (1536 spf)
Bit depth                   : 16 bits
Compression mode            : Lossy
Stream size                 : 560 MiB (13%)
Title                       : Audio Español Latino AC3 5.1 @640Kbps - Vera
Language                    : Spanish
Service kind                : Complete Main
Default                     : Yes
Forced                      : No

Audio #2
ID                          : 3
Format                      : AAC
Format/Info                 : Advanced Audio Codec
Format profile              : LC
Codec ID                    : A_AAC
Duration                    : 2 h 2 min
Bit rate                    : 529 kb/s
Channel(s)                  : 6 channels
Channel positions           : Front: L C R, Side: L R, LFE
Sampling rate               : 48.0 kHz
Frame rate                  : 46.875 FPS (1024 spf)
Compression mode            : Lossy
Stream size                 : 454 MiB (11%)
Title                       : Audio Inglés AAC 5.1 - Vera
Language                    : English
Default                     : No
Forced                      : No

Text #1
ID                          : 4
Format                      : UTF-8
Codec ID                    : S_TEXT/UTF8
Codec ID/Info               : UTF-8 Plain Text
Duration                    : 1 h 52 min
Bit rate                    : 1 b/s
Count of elements           : 45
Stream size                 : 988 Bytes (0%)
Title                       : Subtítulos Español Latino - Forzados (SRT) - Vera
Language                    : Spanish
Default                     : Yes
Forced                      : No

Text #2
ID                          : 5
Format                      : UTF-8
Codec ID                    : S_TEXT/UTF8
Codec ID/Info               : UTF-8 Plain Text
Duration                    : 1 h 50 min
Bit rate                    : 26 b/s
Count of elements           : 724
Stream size                 : 21.1 KiB (0%)
Title                       : Subtítulos Español Latino (SRT) - Vera
Language                    : Spanish
Default                     : No
Forced                      : No

Text #3
ID                          : 6
Format                      : PGS
Muxing mode                 : zlib
Codec ID                    : S_HDMV/PGS
Codec ID/Info               : Picture based subtitle format used on BDs/HD-DVDs
Duration                    : 1 h 52 min
Bit rate                    : 7 614 b/s
Count of elements           : 1446
Stream size                 : 6.14 MiB (0%)
Title                       : Subtítulos Español Latino (PGS) - Vera
Language                    : Spanish
Default                     : No
Forced                      : No

Menu
00:00:00.000                : en:Chapter 1
00:06:31.683                : en:Chapter 2
00:16:57.934                : en:Chapter 3
00:26:35.594                : en:Chapter 4
00:34:38.034                : en:Chapter 5
00:42:07.817                : en:Chapter 6
00:48:07.051                : en:Chapter 7
00:56:41.648                : en:Chapter 8
01:01:42.782                : en:Chapter 9
01:10:27.682                : en:Chapter 10
01:17:15.923                : en:Chapter 11
01:24:22.641                : en:Chapter 12
01:32:11.234                : en:Chapter 13
01:40:01.329                : en:Chapter 14
01:46:34.763                : en:Chapter 15
01:54:01.042                : en:Chapter 16


Imágenes














Descarga

John.Wick.Chapter.2.2017.1080p.BluRay.x264.Dual.Latino-Vera

Cita: Mostrar

Contraseña

NO TIENE

Agradecimientos

A Martin Vera

PD: En vez de extraer el AC3 del audio TrueHD, descubrimos que es mejor convertir el audio TrueHD al formato AAC, donde hay menos perdida de calidad; ya que el TrueHD dobla el peso del rip.
peliculas - programas
135 Puntos Score: 9.6/10
Visitas: 1992 Favoritos: 3
Ver los usuarios que votaron...
19 Comentarios Estreno-Exclusivo|John Wick Chapter 2 (2017) 1080p
El AAC permite 7 canales de audio?
Hola gracias por la pelicula.
me sumo a la pregunta de chupa_flor ya que habemos algunos que nos gusta la maxima calidad de audio en los teatros en casa, lo otro me podrias decir si esta vercion tien CINAVIA?
Voy a descargar, acabo de dar mis 5 puntitos al post de la película de un viejito pero te agradezco y aplauso desde mi casa en Panamá, ese servidor vuela, saludos.
excelente, espere, lo tenia en web-dl
@MARSHALL si es un ripeo del mismo BD osea el Bluray de la pelicula por ovias razones nunca va a tener proteccion cinavia ni nada de eso, dicen que sus tv no lo reproducen o cosas asi y piensan que es por la proteccion cinavia pero no, cuando se ripean los bd's ya no tienen proteccion de ningun tipo los audios tampoco sea ingles o latino, asi que ningun bdrip ni nada de eso viene con proteccion de ningun tipo
te puedes pasar por mi post de john wick solo audio latino hay postie el DTS 5.1 del audio latino y puse el ac3 5.1 tmb solo por si quieren bajar el audio
Espero no ofender, me preguntaba si cuando subas peliculas puedes subir la misma pero en 720p o que pese poco, tengo poca velocidad de bajada  
Cita Eve1287: Mostrar

Man gracias por tu respuesta, lo de cinavia lo pregunte porq la primera calidad que salio de john wick me salio con cinavia ,no entiendo muy bien de los ripeos solo pregunto para no volver a pasar por lo mismo
@MARSHALL de nada amigo no hay de que, pues a mi nunca me ah tocado una pelicula con cinavia y aveces la veo en la lap y otras en la tv pero jamas me han dado errores ni nada y pues aveces pasa, yo si le entiendo mas o menos a lo de los ripeos por eso te conteste jajaja espero ya no te pase amigo, suerte
+10 saludos amigo
Si grabo esto en un dvd como data...¿la podré reproducir en un reproductor de blu ray?
Cita chupa_flor: Mostrar

Cita MARSHALL: Mostrar

Cita hiric2011: Mostrar

Cita WorldWarZ: Mostrar

Cita Eve1287: Mostrar

Cita gabriel111: Mostrar

Cita oskr_1jr: Mostrar

Cita thehard79: Mostrar

Cita chatojairo: Mostrar

Cita cesarbbcc: Mostrar

Cita RMETAL: Mostrar

Cita Hazzus: Mostrar
muchas gracias a todos x pasarse y los puntos! tengo varias pelis para postear quizas haga un solo post on todas ellas! saludos!
@Leopulga de nada amigoo no hay de que, sigue asi subiendo tus aportes sin importar lo que la gente diga
Excelente gracias.
me tarde en descargar, links caidos
vuelve a subirlo, por favor
Para dejar un comentario Registrate! o.. eres ya usuario? Accede!
Facebook Identi