libardomm
"I read a book one day and my whole life was changed. — Orhan Pamuk"

Better Call Saul S03E08 1080p [1,9Gb][Subtitulado]

Better Call Saul S03E08 1080p
[Subtitulos ]

General:


Ambientada en 2002, seis años antes de los acontecimientos relatadas en Breaking Bad, Better Call Saul es un spin-off centrado en el personaje de James 'Jimmy' McGuill (Bob Odenkirk), antes de que asuma la identidad de Saul Goodman, un abogado corrupto con un humor políticamente incorrecto vinculado al mundo criminal que empieza a crear una importante red de contactos en los bajos mundos. La serie narra los acontecimientos que llevan a McGuill a convertirse en Saul antes de trabajar con Walter White (Bryan Cranston), más conocido como Heisenberg, el narcotraficante más temido de Nuevo México.

A McGuill le acompañan su hermano Chuck (Michael McKean), también abogado y máximo referente de éxito para Jimmy; Kim Wexler (Rhea Seehorn), una vieja amiga del protagonista; y Mike Ehrmantraut (Jonathan Banks), policía retirado que trabaja formalmente como investigador privado, pero que en realidad es una tapadera para su labor como el hombre que resuelve los problemas de McGuill, a menudo con métodos violentos.

Otros actores que participan en Better Call Saul son Patrick Fabian, como el abogado Howard Hamlin; Michael Mando, que interpreta al peligroso criminal Nacho Varga; Julie Ann Emery, que será la delincuente Betsy Kettleman; y Jeremy Shamos, en el papel de Craig Kettleman, delincuente y marido de Betsy.


Técnicos: 

General
Unique ID                      : 190075836790969931474118337251112955125 (0x8EFF464ABEBBD27287F9C0884050ACF5)
Complete name                  : E:\Datos\Descargas Jdownloader\[snahp.it]Better.Call.Saul.S03E08.1080p.WEB-DL.DD5.1.H264-RARBG_snahp.it\[snahp.it]Better.Call.Saul.S03E08.1080p.WEB-DL.DD5.1.H264-RARBG_snahp.it\[snahp.it]Better.Call.Saul.S03E08.1080p.WEB-DL.DD5.1.H264-RARBG_snahp.it.mkv
Format                         : Matroska
Format version                 : Version 4 / Version 2
File size                      : 1.91 GiB
Duration                       : 48 min 45 s
Overall bit rate               : 5 618 kb/s
Movie name                     : Better.Call.Saul.S03E08.1080p.WEB-DL.DD5.1.H264-RARBG
Encoded date                   : UTC 2017-06-06 07:38:14
Writing application            : mkvmerge v12.0.0 ('Trust / Lust') 64bit
Writing library                : libebml v1.3.4 + libmatroska v1.4.5
Cover                          : Yes
Attachments                    : small_cover.jpg / small_cover_land.jpg / cover.jpg / cover_land.jpg

Video
ID                             : 1
Format                         : AVC
Format/Info                    : Advanced Video Codec
Format profile                 : [email protected]
Format settings, CABAC         : Yes
Format settings, ReFrames      : 4 frames
Codec ID                       : V_MPEG4/ISO/AVC
Duration                       : 48 min 45 s
Bit rate                       : 5 123 kb/s
Width                          : 1 916 pixels
Height                         : 1 076 pixels
Display aspect ratio           : 16:9
Frame rate mode                : Constant
Frame rate                     : 23.976 (24000/1001) FPS
Color space                    : YUV
Chroma subsampling             : 4:2:0
Bit depth                      : 8 bits
Scan type                      : Progressive
Bits/(Pixel*Frame)             : 0.104
Stream size                    : 1.74 GiB (91%)
Title                          : Better.Call.Saul.S03E08.1080p.WEB-DL.DD5.1.H264-RARBG
Language                       : English
Default                        : Yes
Forced                         : No
Color range                    : Limited
Color primaries                : BT.709
Transfer characteristics       : BT.709
Matrix coefficients            : BT.709

Audio
ID                             : 2
Format                         : AC-3
Format/Info                    : Audio Coding 3
Mode extension                 : CM (complete main)
Format settings, Endianness    : Big
Codec ID                       : A_AC3
Duration                       : 48 min 45 s
Bit rate mode                  : Constant
Bit rate                       : 384 kb/s
Channel(s)                     : 6 channels
Channel positions              : Front: L C R, Side: L R, LFE
Sampling rate                  : 48.0 kHz
Frame rate                     : 31.250 FPS (1536 spf)
Bit depth                      : 16 bits
Compression mode               : Lossy
Delay relative to video        : -42 ms
Stream size                    : 134 MiB (7%)
Title                          : Better.Call.Saul.S03E08.1080p.WEB-DL.DD5.1.H264-RARBG
Language                       : English
Default                        : Yes
Forced                         : No

Text #1
ID                             : 3
Format                         : UTF-8
Codec ID                       : S_TEXT/UTF8
Codec ID/Info                  : UTF-8 Plain Text
Language                       : English
Default                        : Yes
Forced                         : No

Text #2
ID                             : 4
Format                         : UTF-8
Codec ID                       : S_TEXT/UTF8
Codec ID/Info                  : UTF-8 Plain Text
Title                          : SDH
Language                       : English
Default                        : No
Forced                         : No





Nota: Usen la ultima version de 7zip para descomprimir.
Nota2: Si tienen problemas para bajar por mega con megadownloader, usen VPN. 
peliculas - programas
40 Puntos Score: 8/10
Visitas: 371 Favoritos: 0
Ver los usuarios que votaron...
4 Comentarios Better Call Saul S03E08 1080p [1,9Gb][Subtitulado]
Gracias amigo y el capitulo 9?  
Creo que no sale esta semana a menos que salga otra filtración  
Gracias amigo  
Para dejar un comentario Registrate! o.. eres ya usuario? Accede!
Facebook Identi