libardomm
"I read a book one day and my whole life was changed. — Orhan Pamuk"

The Rocky Horror Picture Show-[720 Sub]

The Rocky Horror Picture Show
[720 Subtitulada]


The Rocky Horror Picture Show, dirigida en 1975 por Jim Sharman sobre el musical The Rocky Horror Show, de Richard O'Brien, es una película de culto sobre una pareja que, tras una avería en su coche, se ven obligados a pasar la noche en la mansión del Doctor Frank-N-Furter que celebra la convención de transilvanos con motivo de la creación de su criatura, Rocky Horror, un hombre perfecto cuyo "medio" cerebro pertenece a un delincuente juvenil. La película no tardó en ser objeto de culto y pasar a la historia siendo todavía exhibida en cines donde se montan auténticas fiestas en torno a la película.
General
Complete name                  : C:\Users\Usuario\Downloads\The Rocky Horror Picture Show - zeberzee\The Rocky Horror Picture Show - zeberzee.mp4
Format                         : MPEG-4
Format profile                 : Base Media
Codec ID                       : isom (isom/avc1)
File size                      : 729 MiB
Duration                       : 1 h 40 min
Overall bit rate mode          : Variable
Overall bit rate               : 1 018 kb/s
Encoded date                   : UTC 2011-07-26 07:12:35
Tagged date                    : UTC 2011-07-26 07:12:35

Video
ID                             : 1
Format                         : AVC
Format/Info                    : Advanced Video Codec
Format profile                 : [email protected]
Format settings, CABAC         : Yes
Format settings, ReFrames      : 4 frames
Codec ID                       : avc1
Codec ID/Info                  : Advanced Video Coding
Duration                       : 1 h 40 min
Bit rate                       : 887 kb/s
Maximum bit rate               : 5 029 kb/s
Width                          : 1 280 pixels
Height                         : 768 pixels
Display aspect ratio           : 5:3
Frame rate mode                : Constant
Frame rate                     : 25.000 FPS
Color space                    : YUV
Chroma subsampling             : 4:2:0
Bit depth                      : 8 bits
Scan type                      : Progressive
Bits/(Pixel*Frame)             : 0.036
Stream size                    : 635 MiB (87%)
Title                          : Imported with GPAC 0.4.6-DEV (build 1)
Writing library                : x264 core 92 r1510 33d382a
Encoding settings              : cabac=1 / ref=4 / deblock=1:0:0 / analyse=0x3:0x113 / me=umh / subme=9 / psy=1 / psy_rd=1.00:0.20 / mixed_ref=1 / me_range=16 / chroma_me=1 / trellis=2 / 8x8dct=1 / cqm=0 / deadzone=21,11 / fast_pskip=0 / chroma_qp_offset=-3 / threads=3 / sliced_threads=0 / nr=0 / decimate=0 / interlaced=0 / constrained_intra=0 / bframes=3 / b_pyramid=2 / b_adapt=2 / b_bias=0 / direct=3 / wpredb=1 / wpredp=2 / keyint=250 / keyint_min=25 / scenecut=40 / intra_refresh=0 / rc_lookahead=50 / rc=2pass / mbtree=1 / bitrate=887 / ratetol=1.0 / qcomp=0.60 / qpmin=10 / qpmax=51 / qpstep=4 / cplxblur=20.0 / qblur=0.5 / vbv_maxrate=50000 / vbv_bufsize=50000 / ip_ratio=1.40 / aq=1:1.50 / nal_hrd=none
Encoded date                   : UTC 2011-07-26 07:12:35
Tagged date                    : UTC 2011-07-26 07:14:52

Audio
ID                             : 2
Format                         : AAC
Format/Info                    : Advanced Audio Codec
Format profile                 : LC
Codec ID                       : 40
Duration                       : 1 h 40 min
Bit rate mode                  : Variable
Bit rate                       : 128 kb/s
Maximum bit rate               : 146 kb/s
Channel(s)                     : 2 channels
Channel positions              : Front: L R
Sampling rate                  : 48.0 kHz
Frame rate                     : 46.875 FPS (1024 spf)
Compression mode               : Lossy
Stream size                    : 91.7 MiB (13%)
Encoded date                   : UTC 2011-07-26 07:14:37
Tagged date                    : UTC 2011-07-26 07:14:52








descargar peliculas - descargar programas
40 Puntos Score: 8/10
Visitas: 1339 Favoritos: 1
Ver los usuarios que votaron...
4 Comentarios The Rocky Horror Picture Show-[720 Sub]
sin duda esta es una gran peli de culto. +5
Gracias por el aporte!
buenisimo master !!!
Para dejar un comentario Registrate! o.. eres ya usuario? Accede!
Facebook Identi