libardomm
"I read a book one day and my whole life was changed. — Orhan Pamuk"

La Fiesta del Chivo- Vargas Llosa|DVDRip x264

La Fiesta del Chivo DVDRip x264


Adaptación al cine de La Celebración del Chivo, que es una de las novelas más conocidas de Mario Vargas Llosa, sino más bien la que más y eso que este escritor es muy fecundo y tiene obras magníficas
Todo comienza con Urania, que vuelve a su urbe y se halla a su padre casi muerto, una imagen que contrasta con la que Urania recuerda de él, pues su progenitor fue Presidente del Senado y el más estrecho colaborador del dictador Rafael Trujillo
Su familia no sabe por qué Urania se fue y ha tardado años en volver, concretamente treinta y cinco. Ni la misma Urania lo sabe, conque comienza a rememorar cómo fue su niñez a la vera de uno de los hombres más poderosos de su país. Recuerda el día en el que su padre cayó en desgracia y asimismo el día en que la dictadura acabó cuando el dictador fue acribillado a balazos en su turismo


Technical:

General
Complete name                  : C:\Users\Usuario\Downloads\La fiesta del chivo[spanish-dvdrip]\Chivo.mp4
Format                         : MPEG-4
Format profile                 : Base Media / Version 2
Codec ID                       : mp42 (isom/iso2/avc1/mp41)
File size                      : 748 MiB
Duration                       : 2 h 5 min
Overall bit rate mode          : Variable
Overall bit rate               : 836 kb/s
Movie name                     : DVDVOLUME.Title1.DVDRip
Encoded date                   : UTC 2036-02-06 06:28:16
Tagged date                    : UTC 2036-02-06 06:28:16
Writing application            : HandBrake 0.10.2 2015060900

Video
ID                             : 1
Format                         : AVC
Format/Info                    : Advanced Video Codec
Format profile                 : [email protected]
Format settings, CABAC         : Yes
Format settings, ReFrames      : 4 frames
Codec ID                       : avc1
Codec ID/Info                  : Advanced Video Coding
Duration                       : 2 h 5 min
Bit rate                       : 670 kb/s
Width                          : 720 pixels
Height                         : 270 pixels
Display aspect ratio           : 2.667
Frame rate mode                : Variable
Frame rate                     : 25.000 FPS
Minimum frame rate             : 12.500 FPS
Maximum frame rate             : 25.000 FPS
Color space                    : YUV
Chroma subsampling             : 4:2:0
Bit depth                      : 8 bits
Scan type                      : Progressive
Bits/(Pixel*Frame)             : 0.138
Stream size                    : 599 MiB (80%)
Writing library                : x264 core 142 r2479 dd79a61
Encoding settings              : cabac=1 / ref=1 / deblock=1:0:0 / analyse=0x1:0x111 / me=hex / subme=2 / psy=1 / psy_rd=1.00:0.00 / mixed_ref=0 / me_range=16 / chroma_me=1 / trellis=0 / 8x8dct=0 / cqm=0 / deadzone=21,11 / fast_pskip=1 / chroma_qp_offset=0 / threads=6 / lookahead_threads=2 / sliced_threads=0 / nr=0 / decimate=1 / interlaced=0 / bluray_compat=0 / constrained_intra=0 / bframes=3 / b_pyramid=2 / b_adapt=1 / b_bias=0 / direct=1 / weightb=1 / open_gop=0 / weightp=1 / keyint=250 / keyint_min=25 / scenecut=40 / intra_refresh=0 / rc_lookahead=10 / rc=crf / mbtree=1 / crf=20.0 / qcomp=0.60 / qpmin=0 / qpmax=69 / qpstep=4 / vbv_maxrate=20000 / vbv_bufsize=25000 / crf_max=0.0 / nal_hrd=none / filler=0 / ip_ratio=1.40 / aq=1:1.00
Encoded date                   : UTC 2036-02-06 06:28:16
Tagged date                    : UTC 2036-02-06 06:28:16
Color range                    : Limited
Color primaries                : BT.601 PAL
Transfer characteristics       : BT.709
Matrix coefficients            : BT.601

Audio
ID                             : 2
Format                         : AAC
Format/Info                    : Advanced Audio Codec
Format profile                 : LC
Codec ID                       : 40
Duration                       : 2 h 5 min
Bit rate mode                  : Variable
Bit rate                       : 160 kb/s
Channel(s)                     : 2 channels
Channel positions              : Front: L R
Sampling rate                  : 48.0 kHz
Frame rate                     : 46.875 FPS (1024 spf)
Compression mode               : Lossy
Stream size                    : 143 MiB (19%)
Title                          : Stereo / Stereo
Default                        : Yes
Alternate group                : 1
Encoded date                   : UTC 2036-02-06 06:28:16
Tagged date                    : UTC 2036-02-06 06:28:16





descargar peliculas - descargar programas
75 Puntos Score: 8.3/10
Visitas: 1387 Favoritos: 4
Ver los usuarios que votaron...
14 Comentarios La Fiesta del Chivo- Vargas Llosa|DVDRip x264
Gracias, muy peculiar la escritura de la contraseña.    
Disculpa... cual es la contraseña?? jajajaja ya en serio, me parecio genial, gracias !!!!  
Muchas gracias!!!  
bien,gracias!!!!
Esta padre la contraseña XD
muchas gracias por la pelicula excelente aporte la vi hace ya un rato atras va para la coleccion. saludos
Hola, esta en doblada al español ibérico.
Muchas gracias por el aporte. Saludos a todos.
La tendrias en idioma original?.
Disculpa la molestia.
Gracias.
@libardomm
@Stylo101.1 voy a revisar a ver si encuentro algo. De todas formas no te garantizo nada.
Un saludo.
@libardomm Sos muy amable!. que tengas lindo dia.
Para dejar un comentario Registrate! o.. eres ya usuario? Accede!
Facebook Identi