libardomm
"I read a book one day and my whole life was changed. — Orhan Pamuk"

Better Call Saul S03E08 720p [800 Mb]

Better Call Saul S03E08 720p [800M]
[Subtitulos Incrustados]

General:


Ambientada en 2002, seis años antes de los acontecimientos relatadas en Breaking Bad, Better Call Saul es un spin-off centrado en el personaje de James 'Jimmy' McGuill (Bob Odenkirk), antes de que asuma la identidad de Saul Goodman, un abogado corrupto con un humor políticamente incorrecto vinculado al mundo criminal que empieza a crear una importante red de contactos en los bajos mundos. La serie narra los acontecimientos que llevan a McGuill a convertirse en Saul antes de trabajar con Walter White (Bryan Cranston), más conocido como Heisenberg, el narcotraficante más temido de Nuevo México.

A McGuill le acompañan su hermano Chuck (Michael McKean), también abogado y máximo referente de éxito para Jimmy; Kim Wexler (Rhea Seehorn), una vieja amiga del protagonista; y Mike Ehrmantraut (Jonathan Banks), policía retirado que trabaja formalmente como investigador privado, pero que en realidad es una tapadera para su labor como el hombre que resuelve los problemas de McGuill, a menudo con métodos violentos.

Otros actores que participan en Better Call Saul son Patrick Fabian, como el abogado Howard Hamlin; Michael Mando, que interpreta al peligroso criminal Nacho Varga; Julie Ann Emery, que será la delincuente Betsy Kettleman; y Jeremy Shamos, en el papel de Craig Kettleman, delincuente y marido de Betsy.


Técnicos: 


General
Unique ID                      : 198634448335364912692051414189610634752 (0x956F9A6B8CF3E078567BA020F4780E00)
Complete name                  : E:\Datos\Descargas Jdownloader\Better.Call.Saul.S03E08.720p.HDTV.x264-TOPKEK[ettv]\Better.Call.Saul.S03E08.720p.HDTV.x264-TOPKEK[ettv].mkv
Format                         : Matroska
Format version                 : Version 4 / Version 2
File size                      : 845 MiB
Duration                       : 46 min 4 s
Overall bit rate               : 2 564 kb/s
Writing application            : Lavf57.25.100
Writing library                : Lavf57.25.100 / Lavf57.25.100

Video
ID                             : 1
Format                         : AVC
Format/Info                    : Advanced Video Codec
Format profile                 : [email protected]
Format settings, CABAC         : Yes
Format settings, ReFrames      : 4 frames
Codec ID                       : V_MPEG4/ISO/AVC
Duration                       : 46 min 4 s
Bit rate                       : 2 321 kb/s
Width                          : 1 280 pixels
Height                         : 720 pixels
Display aspect ratio           : 16:9
Frame rate mode                : Constant
Frame rate                     : 30.303 FPS
Original frame rate            : 29.935 FPS
Color space                    : YUV
Chroma subsampling             : 4:2:0
Bit depth                      : 8 bits
Scan type                      : Progressive
Bits/(Pixel*Frame)             : 0.083
Stream size                    : 765 MiB (91%)
Default                        : Yes
Forced                         : No
Color range                    : Limited
Color primaries                : BT.709
Transfer characteristics       : BT.709
Matrix coefficients            : BT.709
DURATION                       : 00:46:04.218000000

Audio
ID                             : 2
Format                         : AC-3
Format/Info                    : Audio Coding 3
Mode extension                 : CM (complete main)
Format settings, Endianness    : Big
Codec ID                       : A_AC3
Duration                       : 46 min 4 s
Bit rate mode                  : Constant
Bit rate                       : 192 kb/s
Channel(s)                     : 2 channels
Channel positions              : Front: L R
Sampling rate                  : 48.0 kHz
Frame rate                     : 31.250 FPS (1536 spf)
Bit depth                      : 16 bits
Compression mode               : Lossy
Delay relative to video        : -100 ms
Stream size                    : 63.3 MiB (7%)
Language                       : English
Default                        : Yes
Forced                         : No
DURATION                       : 00:46:04.160000000






Nota: Los subtítulos están incrustados al vídeo.
peliculas - programas
68 Puntos Score: 6.8/10
Visitas: 1226 Favoritos: 2
Ver los usuarios que votaron...
20 Comentarios Better Call Saul S03E08 720p [800 Mb]
Gracias   +5
Subtitulos incrustados, eso es cosa de cavernicolas @libardomm
https://mkvtoolnix.download/downloads.html
Movistar plus (TV On demand) españa se les escapo el capitulo  
Cita rino: Mostrar
estaba esperandolo en latino, siempre lo postea Criss pero esta ves no lo habia subido. No lo habian transmitido el capitulo 8 oficialmente? que paso?
es verdad de los subtitulos incrustados pero igual se agradece, lo voy a bajar igual  
Como lo descomprimo??
Esta perfecto, muchas gracias, lo único malo es que se pasa el tiempo muy rapido, estas tan entretenido en el capitulo y zas, creditos del final T_T
@Walteers Creo que solo se transmitió en españa o latinoamericano y solo por un canal. En el resto del mundo no.
Muchoz gracias, pero como lo descomprimo primo?
@Ugly con 7zip y con la contraseña que aparece en el post.
ME LA LLEVO EN LO QUE SALE EN LATINO GRACIAS
 
Hola no la chifles que es cantada amigo no te degrades posteando algo de menor categoria a lo que estas acostumbrado todo por llevarte la admiracion de los demas, Yo tambien tengo el capitulo que tu posteaste desde el Martes y prefiero esperar a ofrecer calidad no defraudes a tus seguidores, es solo mi opinion Amigo
@freemantin Gracias por tu opinión. Pero dudo mucho que alguien se sienta defraudado de lo que descarga si antes de dar click en descargar vio los metadatos del archivo de vídeo y encima las capturas de pantalla.
Por otro lado, al menos en mi opinión, la calidad del vídeo no es tan mala como para  considerarla no apta o degradante.
Un saludo y nuevamente gracias por tu valiosa apreciación.
No puedo descomprimir me da un error, cambie los archivos a extension .rar pero ni aun asi, use el 7zip
@isra24 No hay que cambiar la extension. Solo es cuestion de descomprimir el primer archivo con la version mas reciente de 7zip y listo.
Si te sigue tirando error, un archivo se descargo mal de modo que te tocara bajarlo nuevamente.
Graciasss!! Ansioso de que subas el q siguee  
Para dejar un comentario Registrate! o.. eres ya usuario? Accede!
Facebook Identi