Hect65
"¡¡¡Próximamente!!!"

Taxi Derrape Total (2004) 1080p Dual Lat - Ing

Taxi Derrape Total (2004) 1080p  Dual Lat - Ing
Nota : el hacker que haya hecho mal a esta pagina,ni crea que por eso se van a acabar los aportes,tal vez yo me retiré,pero los demás uploaders seguiran aportando en beneficio de la comunidad,pues nosotros los uploaders no obtenemos ninguna ganancia,salvo el de compartir.


Argumento :


Belle Williams (Queen Latifah) es hermosa, dura de pelar y muy "sexy". Por si eso fuera poco, también es famosa por su capacidad para recorrer las atestadas calles de Nueva York a 200 por hora con su taxi. El detective Andy Washburn (Jimmy Fallon), joven, guapo, responsable y torpe, es uno de los peores policías de Nueva York, pero sus habilidades como piloto no están a la altura de sus aspiraciones. En plena persecución de un cuarteto de seductoras brasileñas ladronas de bancos, Washburn logra convencer a Belle para que le ayude a capturarlas. Juntos, la taxista de cabeza fría y el policía desbordante de confianza en el imperio de la ley se lanzan a un peligroso juego del gato y el ratón para echar el guante a las hermosas delincuentes.





Video

ID                          : 1
Format                      : AVC
Format/Info                 : Advanced Video Codec
Format profile              : [email protected]
Format settings, CABAC      : Yes
Format settings, ReFrames   : 2 frames
Codec ID                    : V_MPEG4/ISO/AVC
Duration                    : 1h 37mn
Bit rate                    : 3 021 Kbps
Width                       : 1 920 pixels
Height                      : 1 080 pixels
Display aspect ratio        : 16:9
Frame rate mode             : Constant
Frame rate                  : 23.976 fps
Color space                 : YUV
Chroma subsampling          : 4:2:0
Bit depth                   : 8 bits
Scan type                   : Progressive
Bits/(Pixel*Frame)          : 0.061
Stream size                 : 2.05 GiB (76%)
Title                       : Taxi (2004) Dual 1080p
Writing library             : x264 core
Default                     : Yes
Forced                      : No
Color range                 : Limited
Color primaries             : BT.709
Transfer characteristics    : BT.709
Matrix coefficients         : BT.709


Audio #1
ID                          : 2
Format                      : AC-3
Format/Info                 : Audio Coding 3
Mode extension              : CM (complete main)
Format settings, Endianness : Big
Codec ID                    : A_AC3
Duration                    : 1h 37mn
Bit rate mode               : Constant
Bit rate                    : 448 Kbps
Channel(s)                  : 6 channels
Channel positions           : Front: L C R, Side: L R, LFE
Sampling rate               : 48.0 KHz
Compression mode            : Lossy
Stream size                 : 311 MiB (11%)
Title                       : Audio Latino
Language                    : Latin
Default                     : Yes
Forced                      : No


Audio #2
ID                          : 3
Format                      : AC-3
Format/Info                 : Audio Coding 3
Mode extension              : CM (complete main)
Format settings, Endianness : Big
Codec ID                    : A_AC3
Duration                    : 1h 37mn
Bit rate mode               : Constant
Bit rate                    : 448 Kbps
Channel(s)                  : 6 channels
Channel positions           : Front: L C R, Side: L R, LFE
Sampling rate               : 48.0 KHz
Compression mode            : Lossy
Stream size                 : 311 MiB (11%)
Title                       : Audio Inglés
Language                    : English
Default                     : No
Forced                      : No


Text #1
ID                          : 4
Format                      : UTF-8
Codec ID                    : S_TEXT/UTF8
Codec ID/Info               : UTF-8 Plain Text
Title                       : Sub. Latino
Language                    : Latin
Default                     : No
Forced                      : No


Text #2
ID                          : 5
Format                      : UTF-8
Codec ID                    : S_TEXT/UTF8
Codec ID/Info               : UTF-8 Plain Text
Title                       : Sub. Inglés
Language                    : English
Default                     : No
Forced                      : No




















    





 Descarguen con MegaDownloader  
 
   




         Descarguen con ''mypony o Jdownloader''







Sin Password





Aporte Para La Comunidad IDENTI.LI






Saludos y hasta la próxima.





peliculas - programas
100 Puntos Score: 10/10
Visitas: 1317 Favoritos: 6
Ver los usuarios que votaron...
19 Comentarios Taxi Derrape Total (2004) 1080p Dual Lat - Ing
Muchisimas Gracias.  Excelente aporte.
Gracias    saludos  
@pericos amigazoo,gracias,luego dejo puntos en tu post o posts,saludos
gracias x la peli    
@jose4776 saludos amigo, don´t worry, i ' m trying to relax,
@black043 gracias amigo por valorar y por pasar,saludos
@Guzanero amigazoo gracias,por tu apoyo   tu cuentas conmigo y yo contigo
@Hect65 Tal como ayer   genial amigazo. +10
@Hect65 ya sabes que si y a no desanimarse hermano, estás cosas cada tanto suceden.
Cuando algún pend está aburrido.
Jajajaja  
amigo @biaoyuen18 muchas gracias amigo por valorar,luego dejo puntos en tus post
Animo , asi se habla, gracias por compartir
@epalada gracias por valorar amigo,ya te envie un mp,si no puedes descargar ''Universal Soldier'' me avisas y te mando otro mp,saludos
@Angelkaido , @yansito02 ,@pericos , @black043 , @Guzanero , @biaoyuen18 , @epalada , Gracias amigos por pasar y valorar les mandol,un gran saludos cordial

@Guzanero hermanazo ,mil gracias por tu apoyo continuo
gracias por compartir amigo...  bendiciones
@juanw580 amigo muchas gracias,no te habías visto en IDENTI,pero que gustazo conocerte,es un honor compartir con ustedes y sin ningun tipo de interés,solo el de compartir ,te mando mis mas sinceros saludos y que este de lo mejor
Gran aporte, descargando, gracias  
Para dejar un comentario Registrate! o.. eres ya usuario? Accede!
Facebook Identi