libardomm
"I read a book one day and my whole life was changed. — Orhan Pamuk"

House of Cards S05E013-720p|Web-Dl x264|[Sub]

House of Cards S05E013-720p|Web-Dl x264|[Subtitulado Español]

Sinopsis
Serie de TV (2013-Actualidad). El implacable y manipulador congresista Francis Underwood (Kevin Spacey), con la complicidad de su fría mujer Claire (Robin Wright), maneja con increíble destreza los hilos de poder en Washington. Su retorcido juego político, en el que ansía la secretaría de Estado del nuevo gobierno electo, se desarrolla en el tenebroso mundo de la codicia, el sexo y la corrupción del D.C. contemporáneo. Frank sabe que los medios de comunicación son vitales para conseguir sus objetivos, por lo que decide convertirse en la "garganta profunda" de la joven y ambiciosa periodista Zoe Barnes (Kate Mara), ofreciéndole exclusivas que desestabilicen e incluso hundan a sus adversarios políticos... Nueva adaptación de la novela homónima de Michael Dobbs, en la que se basó una miniserie británica de 1990.

General
Unique ID                      : 244299416342474530601723873691589894971 (0xB7CA5B2B88C338D5A380B4A4747B633B)
Complete name                  : E:\Datos\Descargas Jdownloader\house.of.cards.2013.s05e07.720p.webrip.x264-morose\house.of.cards.2013.s05e13.720p.webrip.x264-morose.mkv
Format                         : Matroska
Format version                 : Version 4 / Version 2
File size                      : 759 MiB
Duration                       : 56 min 18 s
Overall bit rate               : 1 884 kb/s
Encoded date                   : UTC 2017-05-30 08:21:37
Writing application            : mkvmerge v9.6.0 ('Slave To Your Mind') 64bit
Writing library                : libebml v1.3.4 + libmatroska v1.4.5
IsTruncated                    : Yes

Video
ID                             : 1
Format                         : AVC
Format/Info                    : Advanced Video Codec
Format profile                 : [email protected]
Format settings, CABAC         : Yes
Format settings, ReFrames      : 8 frames
Codec ID                       : V_MPEG4/ISO/AVC
Duration                       : 56 min 17 s
Bit rate                       : 1 499 kb/s
Width                          : 1 280 pixels
Height                         : 640 pixels
Display aspect ratio           : 2.000
Frame rate mode                : Constant
Frame rate                     : 23.976 (24000/1001) FPS
Color space                    : YUV
Chroma subsampling             : 4:2:0
Bit depth                      : 8 bits
Scan type                      : Progressive
Bits/(Pixel*Frame)             : 0.076
Stream size                    : 603 MiB (80%)
Writing library                : x264 core 150 r2833 df79067
Encoding settings              : cabac=1 / ref=8 / deblock=1:-3:-3 / analyse=0x3:0x133 / me=umh / subme=9 / psy=1 / psy_rd=1.00:0.15 / mixed_ref=1 / me_range=16 / chroma_me=1 / trellis=2 / 8x8dct=1 / cqm=0 / deadzone=21,11 / fast_pskip=1 / chroma_qp_offset=-3 / threads=12 / lookahead_threads=1 / sliced_threads=0 / nr=0 / decimate=1 / interlaced=0 / bluray_compat=0 / constrained_intra=0 / bframes=3 / b_pyramid=2 / b_adapt=2 / b_bias=0 / direct=3 / weightb=1 / open_gop=0 / weightp=2 / keyint=250 / keyint_min=23 / scenecut=40 / intra_refresh=0 / rc_lookahead=60 / rc=crf / mbtree=1 / crf=18.0 / qcomp=0.60 / qpmin=0 / qpmax=69 / qpstep=4 / ip_ratio=1.40 / aq=3:0.80
Default                        : Yes
Forced                         : No

Audio
ID                             : 2
Format                         : AC-3
Format/Info                    : Audio Coding 3
Mode extension                 : CM (complete main)
Format settings, Endianness    : Big
Codec ID                       : A_AC3
Duration                       : 56 min 18 s
Bit rate mode                  : Constant
Bit rate                       : 384 kb/s
Channel(s)                     : 6 channels
Channel positions              : Front: L C R, Side: L R, LFE
Sampling rate                  : 48.0 kHz
Frame rate                     : 31.250 FPS (1536 spf)
Bit depth                      : 16 bits
Compression mode               : Lossy
Stream size                    : 155 MiB (20%)
Language                       : English
Default                        : Yes
Forced                         : No

Text
ID                             : 3
Format                         : UTF-8
Codec ID                       : S_TEXT/UTF8
Codec ID/Info                  : UTF-8 Plain Text
Duration                       : 53 min 15 s
Bit rate                       : 72 b/s
Count of elements              : 704
Stream size                    : 28.4 KiB (0%)
Title                          : English SDH
Language                       : English
Default                        : No
Forced                         : No




peliculas - programas
30 Puntos Score: 7.5/10
Visitas: 542 Favoritos: 0
Ver los usuarios que votaron...
9 Comentarios House of Cards S05E013-720p|Web-Dl x264|[Sub]
Esta serie es genial, muchas gracias por tomarte el tiempo para subir la 5 temporada ya la baje toda.
Gracias por molestarte en subir toda la temporada... te dejo todos los puntos que me quedan por hoy.
Saludos y gracias nuevamente  
@diegodeace Tranquilo. Igual esto no lo hago por puntos :p. Gracias por comentar.
Excelente Trabajo! Saludos!  
Gracias por finalizar el aporte, quede como se dice en argentina muy manija despues de los primeros 4 ejeje saludos  
@Blackwater jajajaja ¿qué significa queda manija?
@diegodeace Es una forma de expresar que te quedaste con ganas de algo o de mas, o de estar muy ansioso.
"El otro dia jugue un PES con mis amigos y quede remanija de otra copa" "me tome 2 cervezas y ando remanija" jaajja modismos de mi pais jej
@Blackwater También lo escuche en un rap o algo asi. Pense que la palabra la habían inventado para que el rap tuviera algo de sentido.
Gracias por la aclaración.
Para dejar un comentario Registrate! o.. eres ya usuario? Accede!
Facebook Identi