Espinal
"......"

Cadena de favores 1080p 720 Lat-Ing-Sub Español



Sinopsis


Un niño imagina un curioso sistema para mejorar el mundo; hacer favores desinteresadamente. Para sorpresa de todos, la generosa propuesta causa furor entre la gente. Entretenida comedia con toques dramáticos y un eficaz reparto. En la novela en la que se basa el film, el personaje interpretado por Spacey es de raza negra, lo que provocó cierta polémica en USA.

Ficha Técnica


Título original:Pay It Forward
Año: 2000
Duración: 122 min.
País: Estados Unidos Estados Unidos
Director: Mimi Leder
Guion: Leslie Dixon (Novela: Catherine Ryan Hyde)
Música: Thomas Newman
Fotografía: Oliver Stapleton
Reparto: Kevin Spacey, Helen Hunt, Haley Joel Osment, Jay Mohr, James Caviezel (AKA Jim Caviezel), Jon Bon Jovi, Angie Dickinson
Productora: Warner Bros. Pictures / Bel-Air Entertainment present a Tapestry Films Production
Género: Drama

Información


1080P



General
Format                                   : Matroska
Format version                           : Version 4 / Version 2
File size                                : 3.02 GiB
Duration                                 : 2h 3mn
Overall bit rate                         : 3 498 Kbps
Movie name                               : Aporte exclusivo para identi
Encoded date                             : UTC 2017-05-30 00:12:13
Writing library                          : libebml v1.3.0 + libmatroska v1.4.1
DURATION                                 : 01:54:20.356000000
NUMBER_OF_FRAMES                         : 1311
NUMBER_OF_BYTES                          : 40675

Video
ID                                       : 1
Format                                   : AVC
Format/Info                              : Advanced Video Codec
Format profile                           : [email protected]
Format settings, CABAC                   : Yes
Format settings, ReFrames                : 4 frames
Codec ID                                 : V_MPEG4/ISO/AVC
Duration                                 : 2h 3mn
Nominal bit rate                         : 3 100 Kbps
Width                                    : 1 914 pixels
Height                                   : 1 080 pixels
Display aspect ratio                     : 16:9
Frame rate mode                          : Constant
Frame rate                               : 23.976 fps
Color space                              : YUV
Chroma subsampling                       : 4:2:0
Bit depth                                : 8 bits
Scan type                                : Progressive
Bits/(Pixel*Frame)                       : 0.063
Title                                    : Cadena de favores
Writing library                          : x264 core 148 r2643 5c65704
Forced                                   : No
Color range                              : Limited
Color primaries                          : BT.709
Transfer characteristics                 : BT.709
Matrix coefficients                      : BT.709
DURATION                                 : 02:03:23.404000000
NUMBER_OF_FRAMES                         : 177504
NUMBER_OF_BYTES                          : 2851834254

Audio #1
ID                                       : 2
Format                                   : MPEG Audio
Format version                           : Version 1
Format profile                           : Layer 3
Mode                                     : Dual mono
Codec ID                                 : A_MPEG/L3
Codec ID/Hint                            : MP3
Duration                                 : 2h 3mn
Bit rate mode                            : Constant
Bit rate                                 : 192 Kbps
Channel(s)                               : 2 channels
Sampling rate                            : 48.0 KHz
Compression mode                         : Lossy
Delay relative to video                  : 1s 17ms
Stream size                              : 170 MiB (5%)
Default                                  : No
Forced                                   : No
DURATION                                 : 02:03:24.138000000
NUMBER_OF_FRAMES                         : 347069
NUMBER_OF_BYTES                          : 207484790


Audio #2
ID                                       : 3
Format                                   : AAC
Format/Info                              : Advanced Audio Codec
Format profile                           : LC
Codec ID                                 : A_AAC
Duration                                 : 2h 3mn
Channel(s)                               : 6 channels
Channel positions                        : Front: L C R, Side: L R, LFE
Sampling rate                            : 48.0 KHz
Compression mode                         : Lossy
Delay relative to video                  : -21ms
Title                                    : Surround
Language                                 : English
Default                                  : Yes
Forced                                   : No

Text
ID                                       : 4
Format                                   : UTF-8
Codec ID                                 : S_TEXT/UTF8
Codec ID/Info                            : UTF-8 Plain Text
Default                                  : Yes
Forced                                   : No

720


Format :                         :Matroska
File size                          : 1.65 GiB
Duration                          : 2h 3mn
Overall bit rate                  : 1 911 Kbps

Video
ID                                       : 1
Format                                   : AVC
Format/Info                              : Advanced Video Codec
Format profile                           : [email protected]
Format settings, CABAC                   : Yes
Format settings, ReFrames                : 4 frames
Codec ID                                 : V_MPEG4/ISO/AVC
Duration                                 : 2h 3mn
Bit rate                                 : 1 600 Kbps
Width                                    : 1 276 pixels
Height                                   : 720 pixels
Display aspect ratio                     : 16:9
Frame rate mode                          : Constant
Frame rate                               : 23.976 fps
Color space                              : YUV
Chroma subsampling                       : 4:2:0
Bit depth                                : 8 bits
Scan type                                : Progressive
Bits/(Pixel*Frame)                       : 0.073
Stream size                              : 1.34 GiB (81%)
Title                                    : Cadena de favores
Writing library                          : x264 core 148 r2643 5c65704
Default                                  : Yes
Forced                                   : No
Color range                              : Limited
Color primaries                          : BT.709
Transfer characteristics                 : BT.709
Matrix coefficients                      : BT.709
DURATION                                 : 02:03:23.404000000
NUMBER_OF_FRAMES                         : 177504

_Audio #1

Format                                   : MPEG Audio
Format version                           : Version 1
Format profile                           : Layer 3
Mode                                     : Dual mono
Codec ID                                 : A_MPEG/L3
Codec ID/Hint                            : MP3
Duration                                 : 2h 3mn
Bit rate mode                            : Constant
Bit rate                                 : 192 Kbps
Channel(s)                               : 2 channels
Sampling rate                            : 48.0 KHz
Compression mode                         : Lossy
Delay relative to video                  : 1s 17ms
Stream size                              : 170 MiB (10%)
Default                                  : No
Forced                                   : No
DURATION                                 : 02:03:24.072000000
NUMBER_OF_FRAMES                         : 308503
NUMBER_OF_BYTES                          : 118465152

Audio #2
ID                                       : 3
Format                                   : MPEG Audio
Format version                           : Version 1
Format profile                           : Layer 3
Mode                                     : Joint stereo
Mode extension                           : MS Stereo
Codec ID                                 : A_MPEG/L3
Codec ID/Hint                            : MP3
Duration                                 : 2h 3mn
Bit rate mode                            : Constant
Bit rate                                 : 128 Kbps
Channel(s)                               : 2 channels
Sampling rate                            : 48.0 KHz
Compression mode                         : Lossy
Delay relative to video                  : -23ms
Stream size                              : 113 MiB (7%)
Title                                    : Stereo
Language                                 : English
Default                                  : Yes
Forced                                   : No

Text
ID                                       : 4
Format                                   : UTF-8
Codec ID                                 : S_TEXT/UTF8
Codec ID/Info                            : UTF-8 Plain Text
Default                                  : Yes
Forced                                   : No



Cadena de favores Latino Ligera Mkv
http://www.identi.li/index.php?topic=470383
descargar peliculas - descargar programas
125 Puntos Score: 7.8/10
Visitas: 2464 Favoritos: 9
Ver los usuarios que votaron...
24 Comentarios Cadena de favores 1080p 720 Lat-Ing-Sub Español
que gran pelicula , me la llevo  
Gracias buena peli
Buen aporte men.  
mil gracias por el aporte, y me podrías indicar el pass para descomprimir, de nuevo mil gracias
@calvin89   Petrie312  Gracias!  
 @BETORAGE  No tiene
Gracias amigo¡¡¡¡¡  
Muchas GRACIAS por compartir  
@mendoza92 Gracias por pasar!!  
gracias a descargar saludos desde Venezuela  
Hola, graciaspor compartir esta hermosa película. Se la quiero mostrar a mis sobrinos. Pero, no tengo cuenta en Mega y me pide una para bajar un solo archivo tan pesado, ¿le pasa a alguien más o solo a mi?
Sí, gracias por preguntar. Compré una Cuenta en Mega por un mes para lograrlo.
Para dejar un comentario Registrate! o.. eres ya usuario? Accede!
Facebook Identi