libardomm
"I read a book one day and my whole life was changed. — Orhan Pamuk"

House of Cards S05E02-720p|Web-Dl x264|[Sub]

House of Cards S05E02-720p|Web-Dl x264|[Subtitulado Español]

Sinopsis
Serie de TV (2013-Actualidad). El implacable y manipulador congresista Francis Underwood (Kevin Spacey), con la complicidad de su fría mujer Claire (Robin Wright), maneja con increíble destreza los hilos de poder en Washington. Su retorcido juego político, en el que ansía la secretaría de Estado del nuevo gobierno electo, se desarrolla en el tenebroso mundo de la codicia, el sexo y la corrupción del D.C. contemporáneo. Frank sabe que los medios de comunicación son vitales para conseguir sus objetivos, por lo que decide convertirse en la "garganta profunda" de la joven y ambiciosa periodista Zoe Barnes (Kate Mara), ofreciéndole exclusivas que desestabilicen e incluso hundan a sus adversarios políticos... Nueva adaptación de la novela homónima de Michael Dobbs, en la que se basó una miniserie británica de 1990.

General
Unique ID                      : 254988730413007733462752434410351243648 (0xBFD50B0B1DBE930D87298E16C75C3180)
Complete name                  : G:House Of CardsHouse.of.cards.2013.s05e02.720p.webrip.x264-morose_snahp.it[snahp.it]house.of.cards.2013.s05e02.720p.webrip.x264-morose_snahp.it.mkv
Format                         : Matroska
Format version                 : Version 4 / Version 2
File size                      : 905 MiB
Duration                       : 52 min 19 s
Overall bit rate               : 2 417 kb/s
Encoded date                   : UTC 2017-05-30 10:41:34
Writing application            : mkvmerge v9.6.0 ('Slave To Your Mind') 64bit
Writing library                : libebml v1.3.4 + libmatroska v1.4.5

Video
ID                             : 1
Format                         : AVC
Format/Info                    : Advanced Video Codec
Format profile                 : [email protected]
Format settings, CABAC         : Yes
Format settings, ReFrames      : 8 frames
Codec ID                       : V_MPEG4/ISO/AVC
Duration                       : 52 min 19 s
Bit rate                       : 2 031 kb/s
Width                          : 1 280 pixels
Height                         : 640 pixels
Display aspect ratio           : 2.000
Frame rate mode                : Constant
Frame rate                     : 23.976 (24000/1001) FPS
Color space                    : YUV
Chroma subsampling             : 4:2:0
Bit depth                      : 8 bits
Scan type                      : Progressive
Bits/(Pixel*Frame)             : 0.103
Stream size                    : 760 MiB (84%)
Writing library                : x264 core 150 r2833 df79067
Encoding settings              : cabac=1 / ref=8 / deblock=1:-3:-3 / analyse=0x3:0x133 / me=umh / subme=9 / psy=1 / psy_rd=1.00:0.00 / mixed_ref=1 / me_range=16 / chroma_me=1 / trellis=2 / 8x8dct=1 / cqm=0 / deadzone=21,11 / fast_pskip=0 / chroma_qp_offset=-2 / threads=12 / lookahead_threads=1 / sliced_threads=0 / nr=0 / decimate=1 / interlaced=0 / bluray_compat=0 / constrained_intra=0 / bframes=3 / b_pyramid=2 / b_adapt=2 / b_bias=0 / direct=3 / weightb=1 / open_gop=0 / weightp=2 / keyint=250 / keyint_min=23 / scenecut=40 / intra_refresh=0 / rc=crf / mbtree=0 / crf=18.0 / qcomp=0.60 / qpmin=0 / qpmax=69 / qpstep=4 / ip_ratio=1.40 / pb_ratio=1.30 / aq=3:0.70
Default                        : Yes
Forced                         : No

Audio
ID                             : 2
Format                         : AC-3
Format/Info                    : Audio Coding 3
Mode extension                 : CM (complete main)
Format settings, Endianness    : Big
Codec ID                       : A_AC3
Duration                       : 52 min 19 s
Bit rate mode                  : Constant
Bit rate                       : 384 kb/s
Channel(s)                     : 6 channels
Channel positions              : Front: L C R, Side: L R, LFE
Sampling rate                  : 48.0 kHz
Frame rate                     : 31.250 FPS (1536 spf)
Bit depth                      : 16 bits
Compression mode               : Lossy
Stream size                    : 144 MiB (16%)
Language                       : English
Default                        : Yes
Forced                         : No

Text
ID                             : 3
Format                         : UTF-8
Codec ID                       : S_TEXT/UTF8
Codec ID/Info                  : UTF-8 Plain Text
Duration                       : 48 min 59 s
Bit rate                       : 84 b/s
Count of elements              : 731
Stream size                    : 30.1 KiB (0%)
Title                          : English SDH
Language                       : English
Default                        : No
Forced                         : No





descargar peliculas - descargar programas
25 Puntos Score: 8.3/10
Visitas: 455 Favoritos: 0
Ver los usuarios que votaron...
7 Comentarios House of Cards S05E02-720p|Web-Dl x264|[Sub]
Hola !!! me figura fuera de linea el link 2, muchas gracias por compartir!!!!!
No la tienes dual amigo ?
@songotenxs No. Solo idioma original.
Para dejar un comentario Registrate! o.. eres ya usuario? Accede!
Facebook Identi