clannad + ova mega



Tomoya Okazaki es un estudiante de tercer año de secundaria resentido de su vida. Su madre murió de un accidente de coche cuando era más joven, haciendo que su padre a recurrir al alcohol y juegos de azar. Esto se traduce en peleas entre los dos hasta el hombro de Tomoya es herido en una pelea. Desde entonces, Tomoya ha tenido relaciones distantes con su padre, lo que le hace convertirse en un delincuente con el tiempo. Mientras que en un paseo a la escuela, conoce a una chica extraña llamada Nagisa Furukawa, que es un año mayor, pero está repitiendo debido a una enfermedad. Debido a esto, a menudo está solo ya que la mayoría de sus amigos se han trasladado. Los dos empiezan a salir y poco a poco, con el tiempo, Tomoya encuentre su vida, el cambio en una nueva dirección.









General
Complete name                  : C:UsersfabianDesktopclannadC14NNNAD (1).Archivo
Format                         : MPEG-4
Format profile                 : Base Media
Codec ID                       : isom (isom)
File size                      : 172 MiB
Duration                       : 24 min 9 s
Overall bit rate mode          : Variable
Overall bit rate               : 994 kb/s
Encoded date                   : UTC 2008-02-09 19:18:05
Tagged date                    : UTC 2008-02-09 19:18:05
FileExtension_Invalid          : mov mp4 m4v m4a m4b m4p 3gpp 3gp 3gpp2 3g2 k3g jpm jpx mqv ismv isma ismt f4v

Video
ID                             : 1
Format                         : AVC
Format/Info                    : Advanced Video Codec
Format profile                 : [email protected]
Format settings, CABAC         : Yes
Format settings, ReFrames      : 6 frames
Codec ID                       : avc1
Codec ID/Info                  : Advanced Video Coding
Duration                       : 24 min 9 s
Bit rate                       : 895 kb/s
Maximum bit rate               : 4 133 kb/s
Width                          : 1 024 pixels
Height                         : 576 pixels
Display aspect ratio           : 16:9
Frame rate mode                : Constant
Frame rate                     : 23.976 (24000/1001) FPS
Color space                    : YUV
Chroma subsampling             : 4:2:0
Bit depth                      : 8 bits
Scan type                      : Progressive
Bits/(Pixel*Frame)             : 0.063
Stream size                    : 155 MiB (90%)
Writing library                : x264 core 55 svn-663
Encoding settings              : cabac=1 / ref=5 / deblock=1:0:0 / analyse=0x3:0x133 / me=esa / subme=6 / brdo=0 / mixed_ref=0 / me_range=16 / chroma_me=1 / trellis=2 / 8x8dct=1 / cqm=0 / deadzone=21,11 / chroma_qp_offset=0 / threads=1 / nr=0 / decimate=1 / mbaff=0 / bframes=3 / b_pyramid=0 / b_adapt=1 / b_bias=0 / direct=2 / wpredb=0 / bime=0 / keyint=250 / keyint_min=25 / scenecut=40 / rc=2pass / bitrate=895 / ratetol=1.0 / rceq='blurCplx^(1-qComp)' / qcomp=0.60 / qpmin=10 / qpmax=51 / qpstep=4 / cplxblur=20.0 / qblur=0.5 / ip_ratio=1.40 / pb_ratio=1.30
Encoded date                   : UTC 2008-02-08 18:03:15
Tagged date                    : UTC 2008-02-09 19:18:26

Audio
ID                             : 2
Format                         : AAC
Format/Info                    : Advanced Audio Codec
Format profile                 : LC
Codec ID                       : 40
Duration                       : 24 min 9 s
Bit rate mode                  : Variable
Bit rate                       : 96.0 kb/s
Maximum bit rate               : 200 kb/s
Channel(s)                     : 2 channels
Channel positions              : Front: L R
Sampling rate                  : 48.0 kHz
Frame rate                     : 46.875 FPS (1024 spf)
Compression mode               : Lossy
Stream size                    : 16.6 MiB (10%)
Encoded date                   : UTC 2008-02-09 19:18:21
Tagged date                    : UTC 2008-02-09 19:18:26



servidor mega
links 23




importante

para cambiar la extension de los archivos seguir los siguientes pasos
1. abrir bloc de notas
2. copiar el siguiente texto ren *.Archivo *.mp4
3. guardar el archivo como .bat
4.crear una carpeta
5.meter todos los archivos y el .bat
6. ejecutar el .bat
7.listo todos los archivos se convierten a mp4



ren *.(extensiónvieja) *.(extensiónnueva)




https://mega.nz/#F!WwwADZKT!VtV1IYEthTH1EA56pUH-mw

descargar peliculas - descargar programas
5 Puntos Score: 5/10
Visitas: 590 Favoritos: 1
Ver los usuarios que votaron...
1 Comentarios clannad + ova mega
Muchas gracias!
Para dejar un comentario Registrate! o.. eres ya usuario? Accede!
Facebook Identi