ElJodedor
"Si nO Te GuStA lO QuE HaGo, nO Lo hAgAs "El Jodedor""

Daniel el Travieso 1993 HD Lat Original

Daniel el Travieso 1993 HD Lat Original






Daniel es un niño muy inteligente, travieso e inquieto, que continuamente está metido en líos, unas veces de forma intencionada y otras por puro accidente. Su vecino, el jubilado señor Wilson, suele ser la víctima de la mayor parte de sus travesuras. (FILMAFFINITY)

Captura ElJodedor
Sincronizacion ElJodedor
Subida ElJodedor


Format                                   : Matroska
Format version                           : Version 4 / Version 2
File size                                : 3.01 GiB
Duration                                 : 1h 35mn
Overall bit rate                         : 4 494 Kbps
Encoded date                             : UTC 2016-05-19 01:51:07
Writing application                      : mkvmerge v9.1.0 ('Little Earthquakes') 64bit
Writing library                          : libebml v1.3.3 + libmatroska v1.4.4
DURATION                                 : 01:35:58.537000000
NUMBER_OF_FRAMES                         : 220444
NUMBER_OF_BYTES                          : 230341484
_STATISTICS_WRITING_APP                  : mkvmerge v9.1.0 ('Little Earthquakes') 64bit
_STATISTICS_WRITING_DATE_UTC             : 2016-05-19 01:51:07
_STATISTICS_TAGS                         : BPS DURATION NUMBER_OF_FRAMES NUMBER_OF_BYTES

Video
ID                                       : 1
Format                                   : AVC
Format/Info                              : Advanced Video Codec
Format profile                           : [email protected]
Format settings, CABAC                   : No
Format settings, ReFrames                : 2 frames
Codec ID                                 : V_MPEG4/ISO/AVC
Duration                                 : 1h 35mn
Bit rate                                 : 4 085 Kbps
Width                                    : 1 276 pixels
Height                                   : 720 pixels
Display aspect ratio                     : 16:9
Frame rate mode                          : Constant
Frame rate                               : 23.976 fps
Color space                              : YUV
Chroma subsampling                       : 4:2:0
Bit depth                                : 8 bits
Scan type                                : Progressive
Bits/(Pixel*Frame)                       : 0.185
Stream size                              : 2.74 GiB (91%)
Language                                 : English
Default                                  : Yes
Forced                                   : No
Color primaries                          : BT.709
Transfer characteristics                 : BT.709
Matrix coefficients                      : BT.709

Audio
ID                                       : 2
Format                                   : MPEG Audio
Format version                           : Version 1
Format profile                           : Layer 3
Mode                                     : Joint stereo
Codec ID                                 : A_MPEG/L3
Codec ID/Hint                            : MP3
Duration                                 : 1h 35mn
Bit rate mode                            : Constant
Bit rate                                 : 320 Kbps
Channel count                            : 2 channels
Sampling rate                            : 44.1 KHz
Compression mode                         : Lossy
Stream size                              : 220 MiB (7%)
Writing library                          : LAME3.99r
Encoding settings                        : -m j -V 4 -q 3 -lowpass 20.5
Default                                  : Yes
Forced                                   : No







NO
descargar peliculas - descargar programas
103 Puntos Score: 7.9/10
Visitas: 1424 Favoritos: 5
Ver los usuarios que votaron...
14 Comentarios Daniel el Travieso 1993 HD Lat Original
Mil gracias por este clásico familiar y en este calidad ni se diga, un abrazo desde Sevilla Valle del Cauca Colombia
Genial aporte, muchas gracias , que recuerdos jajajaja
gracias por el aporte quisiera saber si tendrias la de E.T con el audio original Lat
Gracias por compartir un saludo
muchas gracias por este aportazo, la verdad desde cuando quería verla en con ese audio latino, porque el remasterizado esta horrible.
Excelente aporte , gracias  
Muy buen aporte... Muchas gracias...  
Uyuyuy tremendo aporte amigo!!
Buen aporte men, gracias.  

Salutes.
Gracias amigo, sigue adelante  
extraordinario, muchas gracias no hay como el doblaje original.
PD. un favor milagroso tal vez tengas la pelicula de ROCKY o alguna con sus doblajes originales inigualables, gracias de nuevo
Para dejar un comentario Registrate! o.. eres ya usuario? Accede!
Facebook Identi