Leopulga
"Ripeos AVC y HEVC solo para coleccionistas."

Exclusivo|Logan (2017) EXTRAS 1080p Placebo CRF20




Esto se consigue mediante una Configurción (CFG) de ripeo exigente llamada Placebo y con un CRF20 que es lo que alcanza a distinguir el ojo humano y dejando unos rips al peso menor posible con calidad me animaría a decir casi como el Blu-ray.

IMPORTANTE: SOMOS UN GRUPO DE ENCODERS, EN ESTE CASO LES TRAIGO LOS EXTRAS DE LOGAN (2017) EN CALIDAD PLACEBO CRF20 RIPEADA POR UNO DEL GRUPO @MARTINVERA, DEJEN SUS AGRADECIMIENTOS HACIA ÉL.


Logan (2017) EXTRAS 1080p BluRay x264



Sinopsis

Sin sus poderes, por primera vez, Wolverine es verdaderamente vulnerable. Después de una vida de dolor y angustia, sin rumbo y perdido en el mundo donde los X-Men son leyenda, su mentor Charles Xavier lo convence de asumir una última misión: proteger a una joven que será la única esperanza para la raza mutante... Tercera y última película protagonizada por Hugh Jackman en el papel de Lobezno.

Ficha Técnica

Fuente: BD50 (USA)
Ripeo: Placebo CRF20
Tiempo de Ripeo: 5 horas
Audios: Inglés AC3 (BD)
Subtítulos: Si (SRT/PGS-Español)
IMDB: 8.4


MediaInfo

MAKING OF (4,09 GB)

General
Unique ID                   : 221075450199181400783646976567484710493 (0xA651953C42A33C35AD2BA04924C97E5D)
Complete name               : Logan.2017.EXTRAS.I.1080p.BluRay.x264-Vera.mkv
Format                      : Matroska
Format version              : Version 4 / Version 2
File size                   : 4.09 GiB
Duration                    : 1 h 16 min
Overall bit rate            : 7 701 kb/s
Encoded date                : UTC 2017-05-26 22:33:23
Writing application         : mkvmerge v12.0.0 ('Trust / Lust') 64bit
Writing library             : libebml v1.3.4 + libmatroska v1.4.5

Video
ID                          : 1
Format                      : AVC
Format/Info                 : Advanced Video Codec
Format profile              : [email protected]
Format settings, CABAC      : Yes
Format settings, ReFrames   : 4 frames
Codec ID                    : V_MPEG4/ISO/AVC
Duration                    : 1 h 16 min
Bit rate                    : 7 453 kb/s
Width                       : 1 920 pixels
Height                      : 1 080 pixels
Display aspect ratio        : 16:9
Frame rate mode             : Constant
Frame rate                  : 23.976 (24000/1001) FPS
Color space                 : YUV
Chroma subsampling          : 4:2:0
Bit depth                   : 8 bits
Scan type                   : Progressive
Bits/(Pixel*Frame)          : 0.150
Stream size                 : 3.96 GiB (97%)
Title                       : Fuente Encodeo: BD50 - Vera
Writing library             : x264 core 148 r2744 b97ae06
Encoding settings           : cabac=1 / ref=4 / deblock=1:0:0 / analyse=0x3:0x133 / me=tesa / subme=11 / psy=1 / psy_rd=1.00:0.00 / mixed_ref=1 / me_range=24 / chroma_me=1 / trellis=2 / 8x8dct=1 / cqm=0 / deadzone=21,11 / fast_pskip=0 / chroma_qp_offset=-2 / threads=12 / lookahead_threads=3 / sliced_threads=0 / nr=0 / decimate=1 / interlaced=0 / bluray_compat=0 / constrained_intra=0 / bframes=16 / b_pyramid=2 / b_adapt=2 / b_bias=0 / direct=3 / weightb=1 / open_gop=0 / weightp=2 / keyint=240 / keyint_min=23 / scenecut=40 / intra_refresh=0 / rc_lookahead=60 / rc=crf / mbtree=1 / crf=20.0 / qcomp=0.60 / qpmin=0 / qpmax=69 / qpstep=4 / vbv_maxrate=62500 / vbv_bufsize=78125 / crf_max=0.0 / nal_hrd=none / filler=0 / ip_ratio=1.40 / aq=1:1.00
Default                     : Yes
Forced                      : No

Audio
ID                          : 2
Format                      : AC-3
Format/Info                 : Audio Coding 3
Mode extension              : CM (complete main)
Format settings, Endianness : Big
Codec ID                    : A_AC3
Duration                    : 1 h 16 min
Bit rate mode               : Constant
Bit rate                    : 224 kb/s
Channel(s)                  : 2 channels
Channel positions           : Front: L R
Sampling rate               : 48.0 kHz
Frame rate                  : 31.250 FPS (1536 spf)
Bit depth                   : 16 bits
Compression mode            : Lossy
Stream size                 : 122 MiB (3%)
Title                       : Audio Inglés AC3 2.0 @224Kbps - Vera
Language                    : English
Default                     : Yes
Forced                      : No

Text #1
ID                          : 3
Format                      : UTF-8
Codec ID                    : S_TEXT/UTF8
Codec ID/Info               : UTF-8 Plain Text
Duration                    : 1 h 16 min
Bit rate                    : 128 b/s
Count of elements           : 1492
Stream size                 : 71.4 KiB (0%)
Title                       : Subtítulos Español Latino (SRT) - Vera
Language                    : Spanish
Default                     : Yes
Forced                      : No

Text #2
ID                          : 4
Format                      : PGS
Muxing mode                 : zlib
Codec ID                    : S_HDMV/PGS
Codec ID/Info               : Picture based subtitle format used on BDs/HD-DVDs
Duration                    : 1 h 16 min
Bit rate                    : 21.7 kb/s
Count of elements           : 2984
Stream size                 : 11.8 MiB (0%)
Title                       : Subtítulos Español Latino (PGS) - Vera
Language                    : Spanish
Default                     : No
Forced                      : No

Menu
00:00:00.000                : en:Chapter 1
00:12:15.568                : en:Chapter 2
00:32:50.719                : en:Chapter 3
00:50:45.292                : en:Chapter 4
00:55:07.971                : en:Chapter 5
01:11:58.439                : en:Chapter 6

DELETED SCENES (167 MB)

General
Unique ID                   : 210708610841501808597763832240458916358 (0x9E850097C7D6FE818943B6F2F2BF6206)
Complete name               : Logan.2017.EXTRAS.II.1080p.BluRay.x264-Vera.mkv
Format                      : Matroska
Format version              : Version 4 / Version 2
File size                   : 167 MiB
Duration                    : 7 min 45 s
Overall bit rate            : 3 012 kb/s
Encoded date                : UTC 2017-05-26 22:42:14
Writing application         : mkvmerge v12.0.0 ('Trust / Lust') 64bit
Writing library             : libebml v1.3.4 + libmatroska v1.4.5

Video
ID                          : 1
Format                      : AVC
Format/Info                 : Advanced Video Codec
Format profile              : [email protected]
Format settings, CABAC      : Yes
Format settings, ReFrames   : 4 frames
Codec ID                    : V_MPEG4/ISO/AVC
Duration                    : 7 min 45 s
Bit rate                    : 2 556 kb/s
Width                       : 1 920 pixels
Height                      : 1 080 pixels
Display aspect ratio        : 16:9
Frame rate mode             : Constant
Frame rate                  : 23.976 (24000/1001) FPS
Color space                 : YUV
Chroma subsampling          : 4:2:0
Bit depth                   : 8 bits
Scan type                   : Progressive
Bits/(Pixel*Frame)          : 0.051
Stream size                 : 142 MiB (85%)
Title                       : Fuente Encodeo: BD50 - Vera
Writing library             : x264 core 148 r2744 b97ae06
Encoding settings           : cabac=1 / ref=4 / deblock=1:0:0 / analyse=0x3:0x133 / me=tesa / subme=11 / psy=1 / psy_rd=1.00:0.00 / mixed_ref=1 / me_range=24 / chroma_me=1 / trellis=2 / 8x8dct=1 / cqm=0 / deadzone=21,11 / fast_pskip=0 / chroma_qp_offset=-2 / threads=12 / lookahead_threads=3 / sliced_threads=0 / nr=0 / decimate=1 / interlaced=0 / bluray_compat=0 / constrained_intra=0 / bframes=16 / b_pyramid=2 / b_adapt=2 / b_bias=0 / direct=3 / weightb=1 / open_gop=0 / weightp=2 / keyint=240 / keyint_min=23 / scenecut=40 / intra_refresh=0 / rc_lookahead=60 / rc=crf / mbtree=1 / crf=20.0 / qcomp=0.60 / qpmin=0 / qpmax=69 / qpstep=4 / vbv_maxrate=62500 / vbv_bufsize=78125 / crf_max=0.0 / nal_hrd=none / filler=0 / ip_ratio=1.40 / aq=1:1.00
Default                     : Yes
Forced                      : No

Audio
ID                          : 2
Format                      : AC-3
Format/Info                 : Audio Coding 3
Mode extension              : CM (complete main)
Format settings, Endianness : Big
Codec ID                    : A_AC3
Duration                    : 7 min 45 s
Bit rate mode               : Constant
Bit rate                    : 448 kb/s
Channel(s)                  : 6 channels
Channel positions           : Front: L C R, Side: L R, LFE
Sampling rate               : 48.0 kHz
Frame rate                  : 31.250 FPS (1536 spf)
Bit depth                   : 16 bits
Compression mode            : Lossy
Stream size                 : 24.9 MiB (15%)
Title                       : Audio Inglés AC3 5.1 @448Kbps - Vera
Language                    : English
Default                     : Yes
Forced                      : No

Text #1
ID                          : 3
Format                      : UTF-8
Codec ID                    : S_TEXT/UTF8
Codec ID/Info               : UTF-8 Plain Text
Duration                    : 7 min 30 s
Bit rate                    : 36 b/s
Count of elements           : 74
Stream size                 : 1.99 KiB (0%)
Title                       : Subtítulos Español Latino (SRT) - Vera
Language                    : Spanish
Default                     : Yes
Forced                      : No

Text #2
ID                          : 4
Format                      : PGS
Muxing mode                 : zlib
Codec ID                    : S_HDMV/PGS
Codec ID/Info               : Picture based subtitle format used on BDs/HD-DVDs
Duration                    : 7 min 31 s
Bit rate                    : 7 144 b/s
Count of elements           : 150
Stream size                 : 394 KiB (0%)
Title                       : Subtítulos Español Latino (PGS) - Vera
Language                    : Spanish
Default                     : No
Forced                      : No

Menu
00:00:00.000                : en:Chapter 1
00:01:59.453                : en:Chapter 2
00:03:12.567                : en:Chapter 3
00:04:26.766                : en:Chapter 4
00:05:49.641                : en:Chapter 5
00:06:55.165                : en:Chapter 6



Imágenes














Descarga

Logan.2017.EXTRAS.1080p.BluRay.x264.-Vera

Cita: Mostrar

Contraseña

NO TIENE

Agradecimientos

Quiero agradecerle al user @MARTINVERA que hizo los ripeos y compartió los enlaces para que los postee.
descargar peliculas - descargar programas
202 Puntos Score: 7.8/10
Visitas: 3358 Favoritos: 9
Ver los usuarios que votaron...
46 Comentarios Exclusivo|Logan (2017) EXTRAS 1080p Placebo CRF20
Buena,saludos amigo,te debo puntos,mañana te los paso a dejar,saludos.
Muy Buena idea, eso de aportar los extras.  
muy bueno amigo!!!!!!! +5
Cita WorldWarZ: Mostrar
Alguien la pidio, sino no la subo ni a palos.  
Gracias @Leopulga ¿Podrías pasarlos a 720p ligero?
Cita tarzerix: Mostrar
Esta ligero, no pesa nada y esta a la maxima calidad existente. No hacemos "ligeros", el peso no lo ponemos nosotros, lo hace el programa. Saludos
genial! muy buen aporte...
Cita Hect65: Mostrar
q la disfrutes bro, no te hagas drama por los puntos!


Cita RMETAL: Mostrar


Cita zerocool22: Mostrar
disfrutalo!

Cita MLPF: Mostrar
Excelente !! Gracias por compartir !!
 
Cita rafael1978: Mostrar
q lo disfrutes bro!  
EXCELENTE, GRACIAS!!!!  
muy bueno muchas gracias  
Cita cesarbbcc: Mostrar

Cita tamakun: Mostrar

Cita ismael85: Mostrar
que lo disfruten!!
¿En que procesador se demora 5 horas este ripeo? En un pentium?  
Cita candela2008: Mostrar
intel core i7 7700k lee el post saludos!
Cita candela2008: Mostrar

te dejo mi rpd y lo que tardo mi ultimo ripeohttps://image.jimcdn.com/app/cms/image/transf/none/path/s38ca72926f153a1b/image/i58b792ef34b109a8/version/1496027593/image.jpg
si, casi 3 dias
@Leopulga Ufff un Xeon, yo estoy con un e5450 en un mother para pentium XD
muchas gracias
pero no es la 3er peli ke trabaja de wolverine sino la 5ta sin contar las veces ke aparecio en un pantallazo
Muchísimas Gracias, yo los pedi, demasiado agradecido
GRACIAS BRO.!! Me llevo este excelente aporte  
Cita ultraton: Mostrar
saludos bro me encuentro subiendo tu pedido de alien 1
Muy agradecido por el aporte.
Sos el puto amigo muchas gracias y abrazo  
Cita gabriel199: Mostrar
El puto amo me comi una palabra pero es sin faltarte el respeto   Una vez mas Gracias
Podrias subir solo las escenas borradas?
Ahí te dejo 10+ de ayer amigo,como siempre super aportazo y en gran calidad de imagen y sonido ,saludos
Chicos Subirán La la land??    
los extras tienen sub D: ?
Gracias que lujo estos aportes leito, el mas y mejor de todos como siempre uds.... Crees que podrían subir The Space Between Us(El espacio entre nosotros) en esta increíble calidad porfa, y muchas gracias descargando todo @Leopulga  
Cita 3POD3: Mostrar
Si, te invito a leer la mediainfo y la ficha tecnica
Cita gabriel199: Mostrar
jajajaj no ha cuidado bro, disfrutala!
Cita darkmastr2: Mostrar
en la noche t la paso x mp bro! saludos!
Cita AquilesVoy: Mostrar
t la paso x mp en la noche bro!
Cita Leopulga: Mostrar
Gracias por la atención bro. Estaré pendiente del mensaje    
Muchas gracias por compartirlo
gracias por el aporte @MARTINVERA y @Leopulga
 .... descargando
Amigo Leito @Leopulga me quede esperando la de The space between Us nunca me llego por mensaje pero bueno ojala la puedan subir con esta calidad que uds usan que es increíble y por supuesto latino-ingles, y por cierto subirán la de terror A cure For Wellness se ve buena y uds saben subir de ese genero, bueno como siempre eres el mejor pero se te extraña cuando no suben nada   Ojala y puedas compartir esos aportres, cuidate Leito, un abrazo y que estes bien amigo  
Cita darkmastr2: Mostrar
hola bro pasa q la version q te iba a pasar solo tiene ingles si la quieres dime!
Cita AquilesVoy: Mostrar
Buen Dia Capo   Una pregunta Seguirán subiendo aportes? últimamente los he visto muy alejados de identi saludos   Algun Dia Subirán La la land?
muchas gracias por el aporte
Excelente aporte amigo, se agradece.
Seguimos en contacto.

 
nada cuesta agradecer gracias por tu aporte y servidor porque mega ya valio chicharron vaca
Para dejar un comentario Registrate! o.. eres ya usuario? Accede!
Facebook Identi