Leopulga
"Ripeos AVC y HEVC solo para coleccionistas."

Exclusivo|Rush (2013) 1080p Slow x265 10bit

Introducción

Al contrario de placebo crf20 en las x264, les traigo lo mejor en x265.. Slow x265 10Bit para reducir Banding, espero les guste

Rush (2013) 1080p Dual (Lat/Ing)



Sinopsis

Narra la rivalidad que mantuvieron dos grandes pilotos de Fórmula 1, el británico James Hunt y el austriaco Niki Lauda, sobre todo en 1976, año en el que Lauda sufrió un gravísimo accidente que casi le costó la vida.

Ficha Técnica

Fuente: BD50 (USA).
Ripeo: Slow Crf20 10Bit
Tiempo de Ripeo: 72 horas.
Audio: Latino (DTS)-Inglés (DTS)
Subtítulos: Si (Srt-Spanish)(Pgs-Spanish) Forzados y Completos
IMDB: 8.1


Mediainfo

General
Unique ID                   : 215693751103447321413272413816057011865 (0xA2451AFBEF89D8239D20D9FE8BF09E99)
Complete name               : C:UsersLeonardoDownloadsVideoRush (2013) Blu-ray 1080p Latino-Inglés [HEVC] 10bit.mkv
Format                      : Matroska
Format version              : Version 4 / Version 2
File size                   : 4.57 GiB
Duration                    : 2 h 2 min
Overall bit rate            : 5 327 kb/s
Encoded date                : UTC 2017-05-28 01:08:44
Writing application         : mkvmerge v8.6.1 ('Flying') 64bit
Writing library             : libebml v1.3.3 + libmatroska v1.4.4

Video
ID                          : 1
Format                      : HEVC
Format/Info                 : High Efficiency Video Coding
Format profile              : Main [email protected]@Main
Codec ID                    : V_MPEGH/ISO/HEVC
Duration                    : 2 h 2 min
Bit rate                    : 3 035 kb/s
Width                       : 1 920 pixels
Height                      : 1 080 pixels
Display aspect ratio        : 16:9
Frame rate mode             : Constant
Frame rate                  : 23.976 (24000/1001) FPS
Color space                 : YUV
Chroma subsampling          : 4:2:0
Bit depth                   : 10 bits
Bits/(Pixel*Frame)          : 0.061
Stream size                 : 2.61 GiB (57%)
Title                       : Rush (2013) BD50 Leonardo.
Writing library             : x265 2.2+2-998d4520d1cf:[Windows][GCC 6.2.0][64 bit] 10bit
Encoding settings           : cpuid=1050111 / frame-threads=3 / numa-pools=8 / wpp / no-pmode / no-pme / no-psnr / no-ssim / log-level=2 / input-csp=1 / input-res=1920x1080 / interlace=0 / total-frames=176828 / level-idc=0 / high-tier=1 / uhd-bd=0 / ref=4 / no-allow-non-conformance / no-repeat-headers / annexb / no-aud / no-hrd / info / hash=0 / no-temporal-layers / open-gop / min-keyint=23 / keyint=250 / bframes=8 / b-adapt=2 / b-pyramid / bframe-bias=0 / rc-lookahead=25 / lookahead-slices=4 / scenecut=40 / no-intra-refresh / ctu=64 / min-cu-size=8 / rect / no-amp / max-tu-size=32 / tu-inter-depth=1 / tu-intra-depth=1 / limit-tu=0 / rdoq-level=2 / signhide / no-tskip / nr-intra=0 / nr-inter=0 / no-constrained-intra / strong-intra-smoothing / max-merge=3 / limit-refs=3 / limit-modes / me=3 / subme=3 / merange=57 / temporal-mvp / weightp / no-weightb / no-analyze-src-pics / deblock=0:0 / sao / no-sao-non-deblock / rd=4 / no-early-skip / rskip / no-fast-intra / no-tskip-fast / no-cu-lossless / no-b-intra / rdpenalty=0 / psy-rd=2.00 / psy-rdoq=1.00 / no-rd-refine / analysis-mode=0 / no-lossless / cbqpoffs=0 / crqpoffs=0 / rc=crf / crf=20.0 / qcomp=0.60 / qpstep=4 / stats-write=0 / stats-read=0 / ipratio=1.40 / pbratio=1.30 / aq-mode=1 / aq-strength=1.00 / cutree / zone-count=0 / no-strict-cbr / qg-size=32 / no-rc-grain / qpmax=69 / qpmin=0 / sar=1 / overscan=0 / videoformat=5 / range=0 / colorprim=2 / transfer=2 / colormatrix=2 / chromaloc=0 / display-window=0 / max-cll=0,0 / min-luma=0 / max-luma=1023 / log2-max-poc-lsb=8 / vui-timing-info / vui-hrd-info / slices=1 / opt-qp-pps / opt-ref-list-length-pps / no-multi-pass-opt-rps / scenecut-bias=0.05
Default                     : Yes
Forced                      : No

Audio #1
ID                          : 2
Format                      : DTS
Format/Info                 : Digital Theater Systems
Mode                        : 16
Format settings, Endianness : Big
Codec ID                    : A_DTS
Duration                    : 2 h 2 min
Bit rate mode               : Constant
Bit rate                    : 768 kb/s
Channel(s)                  : 6 channels
Channel positions           : Front: L C R, Side: L R, LFE
Sampling rate               : 48.0 kHz
Frame rate                  : 93.750 FPS (512 spf)
Bit depth                   : 24 bits
Compression mode            : Lossy
Stream size                 : 675 MiB (14%)
Title                       : Audio Español Latino DTS.
Language                    : Spanish
Default                     : Yes
Forced                      : No

Audio #2
ID                          : 3
Format                      : DTS
Format/Info                 : Digital Theater Systems
Mode                        : 16
Format settings, Endianness : Big
Codec ID                    : A_DTS
Duration                    : 2 h 2 min
Bit rate mode               : Constant
Bit rate                    : 1 509 kb/s
Channel(s)                  : 6 channels
Channel positions           : Front: L C R, Side: L R, LFE
Sampling rate               : 48.0 kHz
Frame rate                  : 93.750 FPS (512 spf)
Bit depth                   : 24 bits
Compression mode            : Lossy
Stream size                 : 1.30 GiB (28%)
Title                       : Audio Inglés DTS.
Language                    : English
Default                     : No
Forced                      : No

Text #1
ID                          : 4
Format                      : UTF-8
Codec ID                    : S_TEXT/UTF8
Codec ID/Info               : UTF-8 Plain Text
Duration                    : 1 h 52 min
Bit rate                    : 67 b/s
Count of elements           : 1439
Stream size                 : 55.4 KiB (0%)
Title                       : Subtítulo Completo- Español Latino Srt.
Language                    : Spanish
Default                     : No
Forced                      : No

Text #2
ID                          : 5
Format                      : UTF-8
Codec ID                    : S_TEXT/UTF8
Codec ID/Info               : UTF-8 Plain Text
Duration                    : 1 h 14 min
Bit rate                    : 2 b/s
Count of elements           : 38
Stream size                 : 1.50 KiB (0%)
Title                       : Subtítulo Forzado-Español Latino.
Language                    : Spanish
Default                     : Yes
Forced                      : No

Text #3
ID                          : 6
Format                      : PGS
Muxing mode                 : zlib
Codec ID                    : S_HDMV/PGS
Codec ID/Info               : Picture based subtitle format used on BDs/HD-DVDs
Duration                    : 1 h 52 min
Bit rate                    : 12.0 kb/s
Count of elements           : 2878
Stream size                 : 9.65 MiB (0%)
Title                       : Subtítulo Completo-Español Latino Pgs.
Default                     : No
Forced                      : No

Text #4
ID                          : 7
Format                      : PGS
Muxing mode                 : zlib
Codec ID                    : S_HDMV/PGS
Codec ID/Info               : Picture based subtitle format used on BDs/HD-DVDs
Duration                    : 1 h 14 min
Bit rate                    : 513 b/s
Count of elements           : 76
Stream size                 : 282 KiB (0%)
Title                       : Subtítulo Forzado-Español Latino Pgs.
Default                     : No
Forced                      : No

Menu
00:00:00.000                : en:Chapter 01
00:05:22.739                : en:Chapter 02
00:11:06.207                : en:Chapter 03
00:14:53.434                : en:Chapter 04
00:20:39.697                : en:Chapter 05
00:24:16.038                : en:Chapter 06
00:29:49.246                : en:Chapter 07
00:36:01.785                : en:Chapter 08
00:40:09.115                : en:Chapter 09
00:46:57.481                : en:Chapter 10
00:51:34.717                : en:Chapter 11
00:59:08.587                : en:Chapter 12
01:05:45.692                : en:Chapter 13
01:12:58.499                : en:Chapter 14
01:19:09.870                : en:Chapter 15
01:24:04.915                : en:Chapter 16
01:29:37.330                : en:Chapter 17
01:35:05.074                : en:Chapter 18
01:46:48.193                : en:Chapter 19
01:53:19.418                : en:Chapter 20

Imágenes



Descarga

Rush (2013) 1080p Dual (Lat/Eng) x265.



Cita: Mostrar

Contraseña

LeonardoPulgaman


Nota: nada de nada
descargar peliculas - descargar programas
115 Puntos Score: 9.6/10
Visitas: 1820 Favoritos: 1
Ver los usuarios que votaron...
30 Comentarios Exclusivo|Rush (2013) 1080p Slow x265 10bit
¿Por qué Exclusivo? No lo entiendo. Me explicas, ¿Cuál es la diferencia entre esta, a todas las demás que existen?
Cita cesarbbcc: Mostrar

Cita David31979: Mostrar

Cita eltiopi: Mostrar
disfrutenla! gracias x pasarse!
Cita lLanister: Mostrar
el ripeo, usando crf y a una velocidad slow con un extra de bframes=8 para mejorar un poco mas la imagen, la hice 10 biit para eliminar banding.. en total se demoro 72horas (3 dias) en ripearse, como no hay gente que ripee de esta forma salvo NitroWoW me parece algo exclusivo   saludos!
muy bueno!!!!!!!!!!!! gracias +10
Cita RMETAL: Mostrar
disfrutala bro, gracias x pasarte!
De Diez bro   Muy buen peli y calidad.
se agradece el aporte

gracias x tu tiempo y del pc
Bro de casualidad de las casualidades no tendrás estas pelis?
Habitación sin Salida 1,2,3 [No vacancy 1,2,3] [terror]
Área de Descanso 1 y 2 [Rest stop 1,2] [terror]
Muchas gracias por tus aportes un saludazo
Cita Duliori_28: Mostrar
hola bro no no las tengo pero si quieres te las puedo pasar 1080p prefijdas, calculo si estaran.. me alegro que te haya gustado, saludos!
Cita WorldWarZ: Mostrar
jajaja mas del pc que mio jajaj saludos!

Cita WorldWarZ: Mostrar
saludos bro gracias x pasarte  
@Leopulga Ohh... ahh... y disculpa si no es indiscreción bro como es eso de prefijadas? jeje, entonces si las puedes conseguir? no importa sin son en su idioma original o las que tengas en la mano, eh buscado esas pelis y no eh tenido suerte en conseguirlas, gracias por todo amigo
Cita Duliori_28: Mostrar
prefijada serian las pelis ripeadas con un valor de bitrate predeterminado, ahora las consigo y te las mando x mp!
@Leopulga Listo me llego el correo ahora si a bajarlas y a ver que ondas, muchas gracias bro!
Cita Duliori_28: Mostrar
de nada bro! saludos! cualquier problema me avisas
Cita Protoss01: Mostrar

Cita charlymont: Mostrar
lo descargeu pero no se que hacer lo reprodusco y no lo jala ningun reprodutor y no m lo descomprime ni nada..ya lo baje 2 veces..comenta..
Cita charlymont: Mostrar
usa el media player classic con codec actualizados y si puedes pasame caracteristicas de tu pc
alienware m14..
core i7 2.4/3.2ghz.
8gb ram 1600mhz,
nvidia gtx 765m.
750hdd 7200 rpm.}
oko orita lo reviso..lo intenten correr con el.
splash pro,el pot player,el vlc,el media classic pero no se si sta actualizado.
 
alguie me puede decir como ve la pelis me la descargue de google driver con jdowloader 2..y me da un archivo ..y no lo puedo reproducir ni descomrimir..????
Cita charlymont: Mostrar
lo tenes q descomprimir
como lo descomprimo.no m manda extension..ni zio,ni rar..?..algu compresor especial?..rar 5 x ejemplo?.solo m da el archivo y ya..lo baje 2 veces y nada..:s
Cita charlymont: Mostrar
ahh vos bajaste la de drive la tenes q reproducir cn mpc
ya kdo..era la descarga k se dañaba no se xk..ya la jalo..
Cita charlymont: Mostrar
genial bro! q bueno  
Amigo, ya la baje, tengo los codecs actualizados y no tengo audio
Para dejar un comentario Registrate! o.. eres ya usuario? Accede!
Facebook Identi