libardomm
"I read a book one day and my whole life was changed. — Orhan Pamuk"

Cosmos- Carl Sagan [Docu Imprescindible][Ingles]

Cosmos- Carl Sagan
[Documental Imprescindible][Subtitulo en español]
[Audio Ingles]
¡¡Mi post 200 !!

Información:
Tras el enorme éxito mundial de su libro "Cosmos", el carismático astrónomo y divulgador científico norteamericano Carl Sagan (1934-1996) lleva sus teorías y explicaciones sobre el conocimiento del Universo a la pequeña pantalla en esta aclamada serie que intenta responder a las grandes preguntas del Cosmos y la vida. Entre los temas que se abordan en los diferentes capítulos están los orígenes de la vida, la búsqueda de vida en Marte, la composición de las estrellas y las galaxias, los viajes interestelares, los efectos de la velocidad de la luz, los peligros de la destrucción de la Tierra por la tecnología humana y la búsqueda de vida extraterrestre, entre otros muchos temas.

Enlace youtube inválido


General

Format                         : AVI
Format/Info                    : Audio Video Interleave
File size                      : 699 MiB
Duration                       : 1 h 0 min
Overall bit rate mode          : Variable
Overall bit rate               : 1 618 kb/s
Writing application            : Nandub v1.0rc2
Writing library                : Nandub build 1852/release

Video
ID                             : 0
Format                         : MPEG-4 Visual
Format settings, BVOP          : 1
Format settings, QPel          : No
Format settings, GMC           : 2 warppoints
Format settings, Matrix        : Default (H.263)
Muxing mode                    : Packed bitstream
Codec ID                       : DX50
Codec ID/Hint                  : DivX 5
Duration                       : 1 h 0 min
Bit rate                       : 1 478 kb/s
Width                          : 496 pixels
Height                         : 384 pixels
Display aspect ratio           : 1.292
Frame rate                     : 29.970 (30000/1001) FPS
Color space                    : YUV
Chroma subsampling             : 4:2:0
Bit depth                      : 8 bits
Scan type                      : Progressive
Compression mode               : Lossy
Bits/(Pixel*Frame)             : 0.259
Stream size                    : 639 MiB (91%)
Writing library                : DivX 5.0.2 (UTC 2002-05-16)

Audio
ID                             : 1
Format                         : MPEG Audio
Format version                 : Version 1
Format profile                 : Layer 3
Mode                           : Joint stereo
Mode extension                 : MS Stereo
Codec ID                       : 55
Codec ID/Hint                  : MP3
Duration                       : 1 h 0 min
Bit rate mode                  : Variable
Bit rate                       : 128 kb/s
Channel(s)                     : 2 channels
Sampling rate                  : 48.0 kHz
Compression mode               : Lossy
Stream size                    : 54.8 MiB (8%)
Alignment                      : Aligned on interleaves
Interleave, duration           : 24  ms (0.72 video frame)
Interleave, preload duration   : 139  ms
Writing library                : LAME3.92
Encoding settings              : -m j -V 4 -q 2 -lowpass 17.5 --abr 128




descargar peliculas - descargar programas
73 Puntos Score: 8.1/10
Visitas: 727 Favoritos: 9
Ver los usuarios que votaron...
9 Comentarios Cosmos- Carl Sagan [Docu Imprescindible][Ingles]
Gran Documental +10
gran volador de tapas de craneo
Si pudiese darte un millón de puntos lo haría, cosmos del inigualable Carl Sagan un aporte que vale su peso en oro, gracias y un abrazo desde Sevilla Valle Colombia
Muy buena serie, ya tengo la de Neil deGrasse Tyson pero no conseguia esta y ademas tengo que hacer una presentación de cualquier tema y pues escogi el universo que es un tema que me encanta y segun escuche la serie Cosmos de Carl Sagan es la mejor de todos los tiempos en cuanto a tema del universo...Muchas gracias por el aporte hay te van 10 puntos
Cosmos , si pudiera te daba 200 puntos por subir esta joya, muchas gracias
muchas gracias por la joya saludos bro  
genial¡¡¡¡¡¡¡¡¡¡¡¡¡¡¡¡¡¡¡¡¡¡¡¡¡¡¡¡¡¡¡¡¡¡¡¡¡¡¡¡¡¡¡¡¡
¡Hermoso documental! Aunque ya lo tenga, te agradezco que lo compartas para que más gente lo conozca. ¡Muchas gracias!
Para dejar un comentario Registrate! o.. eres ya usuario? Accede!
Facebook Identi