Leopulga
"Ripeos AVC y HEVC solo para coleccionistas."

Estreno-Exclusivo|Logan (2017) 1080p Placebo CRF20



Introducción

Hola amigos de Identi.li regreso a postear en esta gran comunidad, nada más ni nada menos que peliculas en la máxima calidad posible imitando al Blu-ray Original.

Esto se consigue mediante una Configurción (CFG) de ripeo exigente llamada Placebo y con un CRF20 que es lo que alcanza a distinguir el ojo humano y dejando unos rips al peso menor posible con calidad me animaría a decir casi como el Blu-ray.

IMPORTANTE: SOMOS UN GRUPO DE ENCODERS, EN ESTE CASO LES TRAIGO LOGAN (2017) EN CALIDAD PLACEBO CRF20 RIPEADA POR UNO DEL GRUPO @MARTINVERA, DEJEN SUS AGRADECIMIENTOS HACIA ÉL.


Logan (2017) 1080p BluRay x264 DTS Dual Latino



Sinopsis

Sin sus poderes, por primera vez, Wolverine es verdaderamente vulnerable. Después de una vida de dolor y angustia, sin rumbo y perdido en el mundo donde los X-Men son leyenda, su mentor Charles Xavier lo convence de asumir una última misión: proteger a una joven que será la única esperanza para la raza mutante... Tercera y última película protagonizada por Hugh Jackman en el papel de Lobezno.

Ficha Técnica

Fuente: BD50 (USA)
Ripeo: Placebo CRF20
Tiempo de Ripeo: 10 horas
Audios: Español Latino AC3 (BD) - Inglés DTS (BD)
Subtítulos: Si (SRT/PGS-Español y Forzados)
IMDB: 8.4


MediaInfo

General
Unique ID                   : 182421979530513242440751255495040051897 (0x893D31FE7971D1DA934712A54D8C2AB9)
Complete name               : Logan.2017.1080p.BluRay.x264.DTS.Dual.Latino-Vera.mkv
Format                      : Matroska
Format version              : Version 4 / Version 2
File size                   : 5.42 GiB
Duration                    : 2 h 17 min
Overall bit rate            : 5 653 kb/s
Encoded date                : UTC 2017-05-24 17:47:20
Writing application         : mkvmerge v12.0.0 ('Trust / Lust') 64bit
Writing library             : libebml v1.3.4 + libmatroska v1.4.5

Video
ID                          : 1
Format                      : AVC
Format/Info                 : Advanced Video Codec
Format profile              : [email protected]
Format settings, CABAC      : Yes
Format settings, ReFrames   : 4 frames
Codec ID                    : V_MPEG4/ISO/AVC
Duration                    : 2 h 17 min
Bit rate                    : 3 686 kb/s
Width                       : 1 920 pixels
Height                      : 1 080 pixels
Display aspect ratio        : 16:9
Frame rate mode             : Constant
Frame rate                  : 23.976 (24000/1001) FPS
Color space                 : YUV
Chroma subsampling          : 4:2:0
Bit depth                   : 8 bits
Scan type                   : Progressive
Bits/(Pixel*Frame)          : 0.074
Stream size                 : 3.54 GiB (65%)
Title                       : Fuente Encodeo: BD50 - Vera
Writing library             : x264 core 148 r2744 b97ae06
Encoding settings           : cabac=1 / ref=4 / deblock=1:0:0 / analyse=0x3:0x133 / me=tesa / subme=11 / psy=1 / psy_rd=1.00:0.00 / mixed_ref=1 / me_range=24 / chroma_me=1 / trellis=2 / 8x8dct=1 / cqm=0 / deadzone=21,11 / fast_pskip=0 / chroma_qp_offset=-2 / threads=12 / lookahead_threads=3 / sliced_threads=0 / nr=0 / decimate=1 / interlaced=0 / bluray_compat=0 / constrained_intra=0 / bframes=16 / b_pyramid=2 / b_adapt=2 / b_bias=0 / direct=3 / weightb=1 / open_gop=0 / weightp=2 / keyint=240 / keyint_min=23 / scenecut=40 / intra_refresh=0 / rc_lookahead=60 / rc=crf / mbtree=1 / crf=20.0 / qcomp=0.60 / qpmin=0 / qpmax=69 / qpstep=4 / vbv_maxrate=62500 / vbv_bufsize=78125 / crf_max=0.0 / nal_hrd=none / filler=0 / ip_ratio=1.40 / aq=1:1.00
Default                     : Yes
Forced                      : No

Audio #1
ID                          : 2
Format                      : AC-3
Format/Info                 : Audio Coding 3
Format settings, Endianness : Big
Codec ID                    : A_AC3
Duration                    : 2 h 17 min
Bit rate mode               : Constant
Bit rate                    : 448 kb/s
Channel(s)                  : 6 channels
Channel positions           : Front: L C R, Side: L R, LFE
Sampling rate               : 48.0 kHz
Frame rate                  : 31.250 FPS (1536 spf)
Bit depth                   : 16 bits
Compression mode            : Lossy
Stream size                 : 440 MiB (8%)
Title                       : Audio Español Latino AC3 5.1 @448Kbps - Vera
Language                    : Spanish
Service kind                : Complete Main
Default                     : Yes
Forced                      : No

Audio #2
ID                          : 3
Format                      : DTS
Format/Info                 : Digital Theater Systems
Mode                        : 16
Format settings, Endianness : Big
Codec ID                    : A_DTS
Duration                    : 2 h 17 min
Bit rate mode               : Constant
Bit rate                    : 1 509 kb/s
Channel(s)                  : 6 channels
Channel positions           : Front: L C R, Side: L R, LFE
Sampling rate               : 48.0 kHz
Frame rate                  : 93.750 FPS (512 spf)
Bit depth                   : 24 bits
Compression mode            : Lossy
Stream size                 : 1.45 GiB (27%)
Title                       : Audio Inglés DTS 5.1 @1509Kbps - Vera
Language                    : English
Default                     : No
Forced                      : No

Text #1
ID                          : 4
Format                      : UTF-8
Codec ID                    : S_TEXT/UTF8
Codec ID/Info               : UTF-8 Plain Text
Duration                    : 1 h 34 min
Bit rate                    : 0 b/s
Count of elements           : 11
Stream size                 : 257 Bytes (0%)
Title                       : Subtítulos Español Latino - Forzados (SRT) - Vera
Language                    : Spanish
Default                     : Yes
Forced                      : No

Text #2
ID                          : 5
Format                      : UTF-8
Codec ID                    : S_TEXT/UTF8
Codec ID/Info               : UTF-8 Plain Text
Duration                    : 2 h 10 min
Bit rate                    : 39 b/s
Count of elements           : 1357
Stream size                 : 37.6 KiB (0%)
Title                       : Subtítulos Español Latino (SRT) - Vera
Language                    : Spanish
Default                     : No
Forced                      : No

Text #3
ID                          : 6
Format                      : PGS
Muxing mode                 : zlib
Codec ID                    : S_HDMV/PGS
Codec ID/Info               : Picture based subtitle format used on BDs/HD-DVDs
Duration                    : 2 h 16 min
Bit rate                    : 7 305 b/s
Count of elements           : 2752
Stream size                 : 7.12 MiB (0%)
Title                       : Subtítulos Español Latino (PGS) - Vera
Language                    : Spanish
Default                     : No
Forced                      : No

Menu
00:00:00.000                : en:Chapter 1
00:05:35.126                : en:Chapter 2
00:09:18.558                : en:Chapter 3
00:11:41.159                : en:Chapter 4
00:16:23.232                : en:Chapter 5
00:20:11.669                : en:Chapter 6
00:24:26.715                : en:Chapter 7
00:26:11.904                : en:Chapter 8
00:30:13.311                : en:Chapter 9
00:31:59.126                : en:Chapter 10
00:34:56.886                : en:Chapter 11
00:39:53.433                : en:Chapter 12
00:42:55.573                : en:Chapter 13
00:45:03.826                : en:Chapter 14
00:47:53.412                : en:Chapter 15
00:49:39.560                : en:Chapter 16
00:52:14.423                : en:Chapter 17
00:54:30.517                : en:Chapter 18
00:57:44.211                : en:Chapter 19
01:00:10.398                : en:Chapter 20
01:03:53.830                : en:Chapter 21
01:06:55.511                : en:Chapter 22
01:09:54.774                : en:Chapter 23
01:13:15.891                : en:Chapter 24
01:18:43.594                : en:Chapter 25
01:21:50.906                : en:Chapter 26
01:25:52.189                : en:Chapter 27
01:28:38.813                : en:Chapter 28
01:32:41.431                : en:Chapter 29
01:35:29.724                : en:Chapter 30
01:41:03.432                : en:Chapter 31
01:43:39.880                : en:Chapter 32
01:49:38.989                : en:Chapter 33
01:54:20.562                : en:Chapter 34
01:57:00.430                : en:Chapter 35
01:59:20.403                : en:Chapter 36
02:01:14.434                : en:Chapter 37
02:05:09.627                : en:Chapter 38
02:06:40.551                : en:Chapter 39
02:11:07.860                : en:Chapter 40



Imágenes














Descarga

Logan.2017.1080p.BluRay.x264.DTS.Dual.Latino-Vera

Cita: Mostrar

Contraseña

NO TIENE

Agradecimientos

A Diego Vera
peliculas - programas
210 Puntos Score: 8.8/10
Visitas: 4760 Favoritos: 7
Ver los usuarios que votaron...
58 Comentarios Estreno-Exclusivo|Logan (2017) 1080p Placebo CRF20
ALgun reproductor en especial para ver esto? Porque no creo que un tv lo decodifique... verdad??
Cita Mandameaca: Mostrar
Cualquier tv puede reproducir esta peli, fue ripeado en el codec universal. Saludos
muchas gracias
Muchas gracias!!
Bit rate                    : 3 686 kb/s Pero tiene bitrate fijo  
Grandes aportes los tuyos, muchas gracias
opa puntos me acreditaron puntos y van para aca je +10 y ahora que viene? yo estoy esperando que salga john wick 2 en blu ray y latino je
Nunca nos defraudas capo!! Gracias!  
Cita mjrc2: Mostrar
disfrutala!

Cita Mandameaca: Mostrar
Disfrutala!

Cita AvoHD: Mostrar
tiene el bitrate justo, tu conoces esa web conocida donde ripeaban antes asi   el bitrate es variable no prefijado saludos

Cita gol300: Mostrar
que la disfrutes!

Cita Espinal: Mostrar
q la disfrutes bro  

Cita RMETAL: Mostrar
esa seguro xq tengo la 1 jajaj gracias x pasarte!

Cita AlexUpMx: Mostrar
disfrutala bro!!
Cita Boris731: Mostrar
gracias bro disfrutala!
Muchísimas gracias bro, a ti y al grupo de uploaders por el esfuerzo de traernos esta calidad. Se aprecia mucho. Van 10
Cita pab201: Mostrar
gracias bro q la disfrutes!
gracias por la peli bro, y disculpa mi ignorancia pero ;  que diferencia hay entre el bitrate fijo y el variable ?
Cita black043: Mostrar
el bitrate fijo es la misma proporcion de bitrate durante toda la pelicula, osea q una peli de ejemplo 4000 de bitrate tendra ese bitrate en todas las escenas, pero q pasa? que hay escenas q no necesitan tanto bitrate para verse bien y otras q necesitan mas que solo 4000 bitrate, con este tipo de ripeos de baja velocidad de encodeo te garantizas q cada escena tenga el bitrate justo, dejando el peso justo, ni ma sni menos y una calidad realmente nada q envidiarle al bluray bro, saludos y gracias x los puntos!
buenas noches, le doy donde dice descargar de todos modos , pero descarga, algo que este haciendo mal, y gracias de antemano.
Cita pakonorte: Mostrar
 
hay qye tener una cuenta drive, porque no me descarga. ahi donde muestras en la imagen le doy click, pero no descarga.
Cita pakonorte: Mostrar
q yo sepa no es necesario bro, pero si gustas crea una y prueba, saludos!
@Poncharelo gracias x los puntos!!
No la pude descargar, ni con la cuenta de drive, y cuando le doy click aqui Logan.2017.1080p.BluRay.x264.DTS.Dual.Latino-Vera.rar (5,3G) me dice que ocurrio un problema con la vista previa y desde ahi redirige a la pagina para descargar  y nada. voy a seguirle intentando. nuevamente gracias.
Gracias por semejante calidad!!
Cita EUTOR72: Mostrar
q la disfrutes bro!
@Leopulga gracias bro, de verdad muy util  
Muchas gracias !!!! Ya tengo una versión muy buena (+ 4450 kbps), pero en Latino 2.0 y creo vale la pena bajar esta versión !. Sigan así !!!!
Muchas gracias.
Cita black043: Mostrar


Cita MARCE2006: Mostrar
x lo que le puse al user @black043 te recomiendo si quieres bajar esta  

Cita Bennu: Mostrar
disfrutala!
La estoy bajando, amigo. Y voy a hacer lo mismo con THE THING (1982), ya que aunque tengo la versión Remastered solo pesa 2.30GB... La de Uds. debe ser terrible !!!!.  Muchas gracias !!!!
Excelente trabajo @MARTINVERA   Se que es abusar al hacer una peticion asi pero estaria de maravilla que subieran el making of que viene en el bluray de esta película un excelente aporte
muchas gracias      
Cita AquilesVoy: Mostrar
Concedido
Cita Leopulga: Mostrar
Gracias A la espera del making of  
+10    que programa usas para esos encodeos?
Un gran aporte bro muchas gracias
Grandeee!!!! muy buen aporte!!!  
gracias por compartir amigo,saludos  
Gracias por el esfuerzo (10 horas de ripeo ). Un saludo
Bien, sigue así. Saludos.
Cita MARCE2006: Mostrar
dale bro luego me dices q tal! saludos y gracias x pasarte

Cita HYAKIMARU: Mostrar
de nada  

Cita RonDamon33: Mostrar
MeGUI bro!

Cita Duliori_28: Mostrar
q lo disfrutes amigo  

Cita Mkairi: Mostrar
disfrutala!

Cita cesarbbcc: Mostrar
disfrutala amigo!

Cita CYPicazo: Mostrar
jajaja aunque no lo creas eso no es nada, eh ripeado pelis q me llevaron 50hs caso ip man 2! saludos bro!

Cita Papelillio: Mostrar
disfrutala wachin!
Cita black043: Mostrar
quizas ahga un post de explicacion mas adelante, saludos
Ufff desde hace rato que esperaba que lo subieses papa! Alta peli, la verdad me encanto. Y por cierto como se llama su grupo de enconders?
Cita Protoss01: Mostrar
q la disfrutes bro, descargas premium!
Cita AquilesVoy: Mostrar
Ya lo tenes
@Leopulga Gracias Bro. acabo de ver el post muchas gracias enserio. es hora de descargar
Cita AquilesVoy: Mostrar
dsifrutalo bro!
Gracias por el aporte
disculá mi ignorancia,pero toda la pelicula estan contandola?
Cita toxitaxi: Mostrar
Como? no entiendo bien tu pregunta
Escribir gracias es poco... pero enormes gracias por la pel, no pude ir al cine cuando salió. Un abrazo. +10
se agradece tremendamente....aunqu no note gran diferencia con los BRrip de 3GB que han subido...pero te dejo 10+
Cita amistad: Mostrar
sencillo las pelis de hoy en dia usan camaras de gran calidad y mas para estas pelis de gran produccion, x lo tanto no necesitan tanto bitrate para verse igual a ojo con el bluray50, no t olvides q se le dejo el dts q pesa casi giga
 medio.. con estos ripeos te garantizas visualmente un parecido muy grande al bluray a vista del ojo en toda la pelicula con el peso justo, nada de mas ni nada de menos, baja un ripeo de 15gb y comparalo con este y no notaras diferencia alguna, saludos bro
Cita Cap1421: Mostrar
q la disfrutes!
Tremendo aporte se agradece mucho bajar se ha dicho  
Gracias por la película !!
Cita Papelillio: Mostrar
amigo papelillio algun dia volveras a subir peliculas en full calidad???
Ya no esta disponible....
Para dejar un comentario Registrate! o.. eres ya usuario? Accede!
Facebook Identi