Leopulga
"Ripeos AVC y HEVC solo para coleccionistas."

Estreno-Exclusivo|Beauty and the Beast 2017 1080p



Introducción

Hola amigos de Identi.li regreso a postear en esta gran comunidad, nada más ni nada menos que peliculas en la máxima calidad posible imitando al Blu-ray Original.

Esto se consigue mediante una Configurción (CFG) de ripeo exigente llamada Placebo y con un CRF20 que es lo que alcanza a distinguir el ojo humano y dejando unos rips al peso menor posible con calidad me animaría a decir casi como el Blu-ray.

IMPORTANTE: SOMOS UN GRUPO DE ENCODERS, EN ESTE CASO LES TRAIGO BEAUTY AND THE BEAST (2017) EN CALIDAD PLACEBO CRF20 RIPEADA POR UNO DEL GRUPO @MARTINVERA, DEJEN SUS AGRADECIMIENTOS HACIA ÉL.


Beauty and the Beast (2017) 1080p BluRay x264 DTS Dual Latino



Sinopsis

Adaptación en imagen real del clásico de Disney "La bella y la bestia", que cuenta la historia de Bella (Emma Watson), una joven brillante y enérgica, que sueña con aventuras y un mundo que se extiende más allá de los confines de su pueblo en Francia. Independiente y reservada, Bella no quiere saber nada con el arrogante y engreído Gastón, quien la persigue sin descanso. Todo cambia un día cuando su padre Maurice (Kevin Kline) es encarcelado en el castillo de una horrible Bestia, y Bella se ofrece a intercambiarse con su padre y queda recluida en el castillo. Rápidamente se hace amiga del antiguo personal del lugar, que fue transformado en objetos del hogar tras una maldición lanzada por una hechicera.
Ficha Técnica

Fuente: BD50 (USA)
Ripeo: Placebo CRF20
Tiempo de Ripeo: 12 horas
Audios: Español Latino AC3 (BD) - Inglés DTS (BD)
Subtítulos: Si (SRT/PGS-Español)
IMDB: 7.6


MediaInfo

General
Unique ID                   : 216069205345690187441603173631068574021 (0xA28D6A4EB5CDEE598DBB009595DD9145)
Complete name               : Beauty.and.the.Beast.2017.1080p.BluRay.x264.DTS.Dual.Latino-Vera.mkv
Format                      : Matroska
Format version              : Version 4 / Version 2
File size                   : 6.32 GiB
Duration                    : 2 h 9 min
Overall bit rate            : 7 001 kb/s
Encoded date                : UTC 2017-05-22 22:32:48
Writing application         : mkvmerge v12.0.0 ('Trust / Lust') 64bit
Writing library             : libebml v1.3.4 + libmatroska v1.4.5

Video
ID                          : 1
Format                      : AVC
Format/Info                 : Advanced Video Codec
Format profile              : [email protected]
Format settings, CABAC      : Yes
Format settings, ReFrames   : 4 frames
Codec ID                    : V_MPEG4/ISO/AVC
Duration                    : 2 h 9 min
Bit rate                    : 4 840 kb/s
Width                       : 1 920 pixels
Height                      : 1 080 pixels
Display aspect ratio        : 16:9
Frame rate mode             : Constant
Frame rate                  : 23.976 (24000/1001) FPS
Color space                 : YUV
Chroma subsampling          : 4:2:0
Bit depth                   : 8 bits
Scan type                   : Progressive
Bits/(Pixel*Frame)          : 0.097
Stream size                 : 4.37 GiB (69%)
Title                       : Fuente Encodeo: BD50 - Vera
Writing library             : x264 core 148 r2744 b97ae06
Encoding settings           : cabac=1 / ref=4 / deblock=1:0:0 / analyse=0x3:0x133 / me=tesa / subme=11 / psy=1 / psy_rd=1.00:0.00 / mixed_ref=1 / me_range=24 / chroma_me=1 / trellis=2 / 8x8dct=1 / cqm=0 / deadzone=21,11 / fast_pskip=0 / chroma_qp_offset=-2 / threads=12 / lookahead_threads=3 / sliced_threads=0 / nr=0 / decimate=1 / interlaced=0 / bluray_compat=0 / constrained_intra=0 / bframes=16 / b_pyramid=2 / b_adapt=2 / b_bias=0 / direct=3 / weightb=1 / open_gop=0 / weightp=2 / keyint=240 / keyint_min=23 / scenecut=40 / intra_refresh=0 / rc_lookahead=60 / rc=crf / mbtree=1 / crf=20.0 / qcomp=0.60 / qpmin=0 / qpmax=69 / qpstep=4 / vbv_maxrate=62500 / vbv_bufsize=78125 / crf_max=0.0 / nal_hrd=none / filler=0 / ip_ratio=1.40 / aq=1:1.00
Default                     : Yes
Forced                      : No

Audio #1
ID                          : 2
Format                      : AC-3
Format/Info                 : Audio Coding 3
Mode extension              : CM (complete main)
Format settings, Endianness : Big
Codec ID                    : A_AC3
Duration                    : 2 h 9 min
Bit rate mode               : Constant
Bit rate                    : 640 kb/s
Channel(s)                  : 6 channels
Channel positions           : Front: L C R, Side: L R, LFE
Sampling rate               : 48.0 kHz
Frame rate                  : 31.250 FPS (1536 spf)
Bit depth                   : 16 bits
Compression mode            : Lossy
Stream size                 : 592 MiB (9%)
Title                       : Audio Español Latino AC3 5.1 @640Kbps - Vera
Language                    : Spanish
Default                     : Yes
Forced                      : No

Audio #2
ID                          : 3
Format                      : DTS
Format/Info                 : Digital Theater Systems
Mode                        : 16
Format settings, Endianness : Big
Codec ID                    : A_DTS
Duration                    : 2 h 9 min
Bit rate mode               : Constant
Bit rate                    : 1 509 kb/s
Channel(s)                  : 6 channels
Channel positions           : Front: L C R, Side: L R, LFE
Sampling rate               : 48.0 kHz
Frame rate                  : 93.750 FPS (512 spf)
Bit depth                   : 24 bits
Compression mode            : Lossy
Stream size                 : 1.36 GiB (22%)
Title                       : Audio Inglés DTS 5.1 @1509Kbps - Vera
Language                    : English
Default                     : No
Forced                      : No

Text #1
ID                          : 4
Format                      : UTF-8
Codec ID                    : S_TEXT/UTF8
Codec ID/Info               : UTF-8 Plain Text
Duration                    : 2 h 1 min
Bit rate                    : 48 b/s
Count of elements           : 1571
Stream size                 : 42.9 KiB (0%)
Title                       : Subtítulos Español Latino (SRT) - Vera
Language                    : Spanish
Default                     : No
Forced                      : No

Text #2
ID                          : 5
Format                      : PGS
Muxing mode                 : zlib
Codec ID                    : S_HDMV/PGS
Codec ID/Info               : Picture based subtitle format used on BDs/HD-DVDs
Duration                    : 2 h 1 min
Bit rate                    : 9 615 b/s
Count of elements           : 3188
Stream size                 : 8.39 MiB (0%)
Title                       : Subtítulos Español Latino (PGS) - Vera
Language                    : Spanish
Default                     : No
Forced                      : No

Menu
00:00:00.000                : en:Once Upon A Time
00:04:36.276                : en:"Belle"
00:08:06.528                : en:Monsieur Gaston
00:11:18.261                : en:"How Does A Moment Last Forever" (Music Box)
00:15:21.546                : en:"Belle" (Reprise)
00:18:57.386                : en:Our Unwitting Host
00:25:05.921                : en:Forever Can Spare A Minute
00:31:41.566                : en:The East Wing
00:36:08.708                : en:"Gaston"
00:42:32.258                : en:Lonely
00:47:01.318                : en:"Be Our Guest"
00:54:44.990                : en:Saved By The Beast
01:00:43.557                : en:"Days In The Sun"
01:07:40.932                : en:"Something There"
01:14:38.224                : en:"How Does A Moment Last Forever" (Montmartre)
01:19:43.696                : en:Your Troubled Mind
01:22:02.751                : en:"Beauty And The Beast"
01:28:53.370                : en:"Evermore"
01:34:01.302                : en:"The Mob Song"
01:38:10.176                : en:"Attack"
01:45:23.692                : en:"I Am Not A Beast"
01:49:13.964                : en:The Final Petal
01:55:54.197                : en:"Beauty And The Beast" (Finale)
01:58:49.497                : en:End Credits


Imágenes














Descarga

Beauty.and.the.Beast.2017.1080p.BluRay.x264.DTS.Dual.Latino-Vera

Cita: Mostrar

Contraseña

NO TIENE

Agradecimientos

A Diego Vera
descargar peliculas - descargar programas
100 Puntos Score: 9.1/10
Visitas: 3204 Favoritos: 6
Ver los usuarios que votaron...
17 Comentarios Estreno-Exclusivo|Beauty and the Beast 2017 1080p
Gracias amigo 10+
No soy muy de disney, pero con esta calidad vale la pena tenerla en la colección  
Tambien me llevo esta, gracias!!  
Cita Hect65: Mostrar

Cita WorldWarZ: Mostrar

Cita AlexUpMx: Mostrar
disfrutenla amigos!
Muchísimas gracias, a ti y a Diego verá. Excelente trabajo.  Una pregunta,  sabes donde puedo conseguir las del hobbit en esta calidad bro? Eh visto que están con el codec x265 pero mi smart tv no las reproduce. En cambio estas si. Muchas gracias nuevamente
Muchas gracias.
Cita pab201: Mostrar
q la disfrutes, diego andaba con ganas de hacerlas, veremos si las traigo  

Cita Bennu: Mostrar
excelente amigo
Cita RonDamon33: Mostrar

Cita cesarbbcc: Mostrar
q la disfruten!!
Muchas gracias por otra peli mas men! Solo una cosita que no te eh contado, la verdad no puedo descargar de google XD osea si me lo comienza a bajar pero luego de un rato se corta y no me reanuda mas. No sabes que puede ser?
Cita Protoss01: Mostrar
de nada bro, raro bro igual la puedes reanudar, yo te recomiendo que uses el internet downlaod manager es muy bueno!
@Leopulga Toy con el jdownloader 2, si hace años que no lo uso al IDM, voy a probar a ver que onda.
a disfrutar se a dicho muy agradecido brooh  
Muchas gracias por el aporte  
Caido, podrias resubiorlo o algo asi, gracias

Bro, tu versión no tiene comparación, pero el link de drive está muerto.
Ojala pudieras resubir la peli. Vale la pena descargar tus aportes.
 
Para dejar un comentario Registrate! o.. eres ya usuario? Accede!
Facebook Identi