Leopulga
"Ripeos AVC y HEVC solo para coleccionistas."

Exclusivo|Ip Man 2 (2010) 1080p Placebo Crf20

Introducción

Hola amigos de Identi.li regreso a postear en esta gran comunidad, nada más ni nada menos que peliculas en la máxima calidad posible imitando al Blu-ray Original.

Esto se consigue mediante una Config. (Cfg) de ripeo exigente llamada Placebo y con un crf20 que es lo que alcanza a distinguir el ojo humano y dejando unos rips al peso menor posible con calidad me animaria a decir casi como el Bluray.

Ip Man 2 (2010) 1080p Dual (Lat/Chi)

Sinopsis
En esta secuela, Ip Man (Donnie Yen) ha dejado atrás Foshun y llega a Hong-Kong, donde abre una escuela de Wing Chun. Allí pronto entra en conflicto con un maestro local de Hung Fist llamado Hung Jan-nam (Sammo Hung). Las tensiones entre los dos maestros de Kung fu seguirán incrementándose hasta que se ven forzados a batirse a duelo.

Ficha Técnica

Fuente: BD50 (Usa).
Ripeo: Placebo Crf20.
Tiempo de Ripeo: 50 horas.
Audio: Latino y Chino.
Subtítulos: Si (Srt-Spanish)
IMDB: 7.6

Mediainfo

General
Unique ID                   : 214696428185605912902145855250267050176 (0xA185072AFABC9D77B6103448D62310C0)
Complete name               : A:Leo ManenttiIp Man 2 (2010) Blu-ray 1080p Latino-Chino [AVC].mkv
Format                      : Matroska
Format version              : Version 4 / Version 2
File size                   : 11.1 GiB
Duration                    : 1h 48mn
Overall bit rate            : 14.7 Mbps
Encoded date                : UTC 2017-05-24 18:48:32
Writing application         : mkvmerge v8.6.1 ('Flying') 64bit
Writing library             : libebml v1.3.3 + libmatroska v1.4.4
DURATION                    : 01:42:40.085000000
NUMBER_OF_FRAMES            : 1079
NUMBER_OF_BYTES             : 30253
_STATISTICS_WRITING_APP     : mkvmerge v8.6.1 ('Flying') 64bit
_STATISTICS_WRITING_DATE_UT : 2017-05-24 18:48:32
_STATISTICS_TAGS            : BPS DURATION NUMBER_OF_FRAMES NUMBER_OF_BYTES

Video
ID                          : 1
Format                      : AVC
Format/Info                 : Advanced Video Codec
Format profile              : [email protected]
Format settings, CABAC      : Yes
Format settings, ReFrames   : 4 frames
Codec ID                    : V_MPEG4/ISO/AVC
Duration                    : 1h 48mn
Bit rate                    : 12.5 Mbps
Width                       : 1 920 pixels
Height                      : 1 080 pixels
Display aspect ratio        : 16:9
Frame rate mode             : Constant
Frame rate                  : 23.976 fps
Color space                 : YUV
Chroma subsampling          : 4:2:0
Bit depth                   : 8 bits
Scan type                   : Progressive
Bits/(Pixel*Frame)          : 0.251
Stream size                 : 9.44 GiB (85%)
Title                       : Ip Man 2 (2010) BD50 Leonardo
Writing library             : x264 core 148 r2744 b97ae06
Encoding settings           : cabac=1 / ref=4 / deblock=1:0:0 / analyse=0x3:0x133 / me=tesa / subme=11 / psy=1 / psy_rd=1.00:0.00 / mixed_ref=1 / me_range=24 / chroma_me=1 / trellis=2 / 8x8dct=1 / cqm=0 / deadzone=21,11 / fast_pskip=0 / chroma_qp_offset=-2 / threads=12 / lookahead_threads=3 / sliced_threads=0 / nr=0 / decimate=1 / interlaced=0 / bluray_compat=0 / constrained_intra=0 / bframes=16 / b_pyramid=2 / b_adapt=2 / b_bias=0 / direct=3 / weightb=1 / open_gop=0 / weightp=2 / keyint=240 / keyint_min=23 / scenecut=40 / intra_refresh=0 / rc_lookahead=60 / rc=crf / mbtree=1 / crf=20.0 / qcomp=0.60 / qpmin=0 / qpmax=69 / qpstep=4 / vbv_maxrate=62500 / vbv_bufsize=78125 / crf_max=0.0 / nal_hrd=none / filler=0 / ip_ratio=1.40 / aq=1:1.00
Default                     : Yes
Forced                      : No

Audio #1
ID                          : 2
Format                      : DTS
Format/Info                 : Digital Theater Systems
Mode                        : 16
Format settings, Endianness : Big
Codec ID                    : A_DTS
Duration                    : 1h 48mn
Bit rate mode               : Constant
Bit rate                    : 1 509 Kbps
Channel(s)                  : 6 channels
Channel positions           : Front: L C R, Side: L R, LFE
Sampling rate               : 48.0 KHz
Bit depth                   : 16 bits
Compression mode            : Lossy
Stream size                 : 1.14 GiB (10%)
Title                       : Chinese
Language                    : Chinese
Default                     : Yes
Forced                      : No

Audio #2
ID                          : 3
Format                      : AC-3
Format/Info                 : Audio Coding 3
Mode extension              : CM (complete main)
Format settings, Endianness : Big
Codec ID                    : A_AC3
Duration                    : 1h 48mn
Bit rate mode               : Constant
Bit rate                    : 448 Kbps
Channel(s)                  : 2 channels
Channel positions           : Front: L R
Sampling rate               : 48.0 KHz
Compression mode            : Lossy
Delay relative to video     : 12ms
Stream size                 : 347 MiB (3%)
Title                       : Spanish
Language                    : Spanish
Default                     : No
Forced                      : No

Text
ID                          : 4
Format                      : UTF-8
Codec ID                    : S_TEXT/UTF8
Codec ID/Info               : UTF-8 Plain Text
Title                       : Spanish Srt
Language                    : Spanish
Default                     : Yes
Forced                      : No

Menu
00:00:00.000                : en:Chapter 01
00:05:00.000                : en:Chapter 02
00:10:00.000                : en:Chapter 03
00:15:00.000                : en:Chapter 04
00:20:00.000                : en:Chapter 05
00:25:00.000                : en:Chapter 06
00:30:00.000                : en:Chapter 07
00:35:00.000                : en:Chapter 08
00:40:00.000                : en:Chapter 09
00:45:00.000                : en:Chapter 10
00:50:00.000                : en:Chapter 11
00:55:00.000                : en:Chapter 12
01:00:00.000                : en:Chapter 13
01:05:00.000                : en:Chapter 14
01:10:00.000                : en:Chapter 15
01:15:00.000                : en:Chapter 16
01:20:00.000                : en:Chapter 17
01:25:00.000                : en:Chapter 18
01:30:00.000                : en:Chapter 19
01:35:00.000                : en:Chapter 20
01:40:00.000                : en:Chapter 21
01:45:00.000                : en:Chapter 22

Imágenes



Descarga

Ip Man 2 (2010) 1080p Dual (Lat/Chi).


Cita: Mostrar

Contraseña

LeonardoPulgaman


Nota: lalalalalala
descargar peliculas - descargar programas
140 Puntos Score: 8.8/10
Visitas: 3179 Favoritos: 4
Ver los usuarios que votaron...
21 Comentarios Exclusivo|Ip Man 2 (2010) 1080p Placebo Crf20
Ahh no bueno,que bárbaro,y yo ahorita sin mis puntos ,que aporte ,eres grande Leo!!!, vuelvo y al rato de dejo tus puntos saludos
muy bueno!!!!!!! no tengo puntos pero gran trabajo!!! y ahora que viene???
Y esta!! Gracias otra vez!  
Cita Hect65: Mostrar

Cita RMETAL: Mostrar

Cita Espinal: Mostrar

Cita WorldWarZ: Mostrar

Cita AlexUpMx: Mostrar
muchas gracias x pasarse amigos! que la disfruten!
gracias amigo ya la descargue y se ve excelente!!1 te doy 5 saludos
Cita gabriel111: Mostrar
gracias bro me agrada q te guste   subi la 1 si te interesa saludos!
Cita LRMBRO: Mostrar
Cita Leopulga: Mostrar
GRACIAS AMIGO   ya la descargue también :Dn agradeciendo tus aportes y felicitándote por tan gran esfuerzo amigo saludos
Cita gabriel111: Mostrar
gracias bro!
gracias man, voy a descargar, la esperaba!
Cita moris2089: Mostrar
disfrutala bro!
@eltiopi gracias x los puntos!
quedaria mejor en x265  supera ala mierda de h264 antigua
Buenisimo bro muchas gracias y en drive... bajando a full xD, saludos y que estés perfecto
Cita Dante1342: Mostrar
para nada, aun el x265 no pudo superar al x264 en ripeos ya que se demoraria semanas en ripear una pelicula, saludos!

Cita Duliori_28: Mostrar
gracias amigo q la disfrutes y gracias x pasarte!

Cita cesarbbcc: Mostrar
gracias a ti por pasarte  
Muy buena ,gracias por compartir !!
podrias resubirla porfas leo?  
Para dejar un comentario Registrate! o.. eres ya usuario? Accede!
Facebook Identi