Espinal
"......"

Forsaken (2015)-Dual-1080p-720p Ligero



Sinopsis


En 1872, John Henry (Kiefer Sutherland) regresa a su ciudad natal tras haber abandonado su vida como pistolero y su reputación como veloz asesino, con la esperanza de arreglar la relación con su padre, el reverendo Clayton (Donald Sutherland). Al llegar, descubre que una banda tiene aterrorizado al pueblo con el fin de conseguir que los terratenientes vendan sus tierras para que el tren pase por el pueblo. John Henry es el único que puede detenerlos, pero su padre no quiere que su hijo regrese a una vida de violencia.

Ficha Tecnica


Título original: Forsaken
Año: 2015
Duración: 90 min.
País: Canadá Canadá
Director: Jon Cassar
Guion: Brad Mirman
Música: Jonathan Goldsmith
Fotografía: Rene Ohashi
Reparto: Kiefer Sutherland, Donald Sutherland, Brian Cox, Demi Moore, Siobhan Williams, Michael Wincott, Landon Liboiron, Greg Ellis, Wesley Morgan, Aaron Poole, Michael Therriault, Christopher Rosamond.
Productora: Panacea Entertainment / Minds Eye Entertainment / Rollercoaster Films
Género: Western. Drama

1080p

Información
Format : Matroska
File size : 2.82 GiB
Duration : 1h 29mn
Overall bit rate : 4 493 Kbps
Width : 1 920 pixels
Height : 1 080 pixels
Display aspect ratio : 16:9

Audio #1
Español Latino [DTS 5.1 BD]
Bit rate : 768 Kbps
Channel(s) : 6 channels
Sampling rate : 48.0 KHz
Stream size : 494 MiB (17%)

Audio #2
Ingles [DTS 5.1 BD]
Bit rate : 1 509 Kbps
Channel(s) : 6 channels
Sampling rate : 48.0 KHz
Bit depth : 24 bits
Stream size : 971 MiB (34%)

Text #1
ID : 4
Format : PGS
Codec ID : S_HDMV/PGS
Language : Spanish
Default : No
Forced : No

Text #2
ID : 5
Format : PGS
Codec ID : S_HDMV/PGS
Language : English
Default : No
Forced : No
Captures





720p


Información


Audios: Español Latino-Ingles
Tamaño: 808 mb
Resolución: 1280×534
Formato: .mkv
Duration : 1h 29mn
Servidor :Mega
Captures




descargar peliculas - descargar programas
110 Puntos Score: 10/10
Visitas: 2142 Favoritos: 3
Ver los usuarios que votaron...
6 Comentarios Forsaken (2015)-Dual-1080p-720p Ligero
Gracias Espinal en nombre de todos los que  tenemos poca banda ancha o poco espacio en el disco o simplemente buscamos rapides en las  descargas, gracias a vos disfrutamos de ver películas  
Para dejar un comentario Registrate! o.. eres ya usuario? Accede!
Facebook Identi