Leopulga
"Ripeos AVC y HEVC solo para coleccionistas."

Exclusivo|The Thing (2011) 1080p Placebo Crf20

Les traigo otra pelicula ripeada por THEWOMAN00.. anda activa la wacha (tiene rpd mas rápido solo eso jajaj na mentira) saludos que la disfruten!!

Introducción

Hola amigos de Identi.li regreso a postear en esta gran comunidad, nada más ni nada menos que peliculas en la máxima calidad posible imitando al Blu-ray Original.

Esto se consigue mediante una Config. (Cfg) de ripeo exigente llamada Placebo y con un crf20 que es lo que alcanza a distinguir el ojo humano y dejando unos rips al peso menor posible con calidad me animaria a decir casi como el Bluray.

Importante

SOMOS UN GRUPO DE ENCODERS, EN ESTE CASO LES TRAIGO THE THING (2011) CALIDAD X264 PLACEBO CRF20 RIPEADA POR UNA DEL GRUPO @THEWOMAN00, DEJEN SUS AGRADECIMIENTOS HACIA ELLA.


The Thing (2011) 1080p Dual (Lat/Ing)



Sinopsis
En una remota zona de la Antártida, un descubrimiento de gran relevancia científica se convierte en un problema de supervivencia. La paleontóloga Kate Lloyd (Mary Elizabeth Winstead) llega a esa inhóspita región para colaborar con un equipo científico noruego que ha encontrado una nave extraterrestre enterrada en el hielo, en cuyo interior hay un ser alienígena congelado pero cuyas células están vivas... Precuela de "La Cosa", película dirigida por John Carpenter y protagonizada por Kurt Russell, que se basaba en un clásico de serie B de los años 50.

Ficha Técnica

Fuente: BD50 (Usa).
Ripeo: Placebo Crf20.
Tiempo de Ripeo: 10 horas.
Audio: Latino y Inglés.
Subtítulos: Si (Srt-Spanish) y (Pgs-Spanish)
IMDB: 6.2

Mediainfo

General
Unique ID                   : 229323657684557152502661461865550937379 (0xAC86214308BCD14B824FAEB5C2B97D23)
Complete name               : C:UsersLeonardoDownloadsVideoThe Thing 2011 1080p BluRay x264 DTS Dual Latino-THEWOMAN00.mkv
Format                      : Matroska
Format version              : Version 4 / Version 2
File size                   : 4.03 GiB
Duration                    : 1 h 43 min
Overall bit rate            : 5 604 kb/s
Encoded date                : UTC 2017-05-23 03:34:41
Writing application         : mkvmerge v9.6.0 ('Slave To Your Mind') 64bit
Writing library             : libebml v1.3.4 + libmatroska v1.4.5

Video
ID                          : 1
Format                      : AVC
Format/Info                 : Advanced Video Codec
Format profile              : [email protected]
Format settings, CABAC      : Yes
Format settings, ReFrames   : 4 frames
Codec ID                    : V_MPEG4/ISO/AVC
Duration                    : 1 h 43 min
Bit rate                    : 3 319 kb/s
Width                       : 1 920 pixels
Height                      : 1 080 pixels
Display aspect ratio        : 16:9
Frame rate mode             : Constant
Frame rate                  : 23.976 (24000/1001) FPS
Color space                 : YUV
Chroma subsampling          : 4:2:0
Bit depth                   : 8 bits
Scan type                   : Progressive
Bits/(Pixel*Frame)          : 0.067
Stream size                 : 2.39 GiB (59%)
Writing library             : x264 core 148 r2744 b97ae06
Encoding settings           : cabac=1 / ref=4 / deblock=1:0:0 / analyse=0x3:0x133 / me=tesa / subme=11 / psy=1 / psy_rd=1.00:0.00 / mixed_ref=1 / me_range=24 / chroma_me=1 / trellis=2 / 8x8dct=1 / cqm=0 / deadzone=21,11 / fast_pskip=0 / chroma_qp_offset=-2 / threads=12 / lookahead_threads=3 / sliced_threads=0 / nr=0 / decimate=1 / interlaced=0 / bluray_compat=0 / constrained_intra=0 / bframes=16 / b_pyramid=2 / b_adapt=2 / b_bias=0 / direct=3 / weightb=1 / open_gop=0 / weightp=2 / keyint=240 / keyint_min=23 / scenecut=40 / intra_refresh=0 / rc_lookahead=60 / rc=crf / mbtree=1 / crf=20.0 / qcomp=0.60 / qpmin=0 / qpmax=69 / qpstep=4 / vbv_maxrate=62500 / vbv_bufsize=78125 / crf_max=0.0 / nal_hrd=none / filler=0 / ip_ratio=1.40 / aq=1:1.00
Default                     : Yes
Forced                      : No

Audio #1
ID                          : 2
Format                      : DTS
Format/Info                 : Digital Theater Systems
Mode                        : 16
Format settings, Endianness : Big
Codec ID                    : A_DTS
Duration                    : 1 h 43 min
Bit rate mode               : Constant
Bit rate                    : 1 509 kb/s
Channel(s)                  : 6 channels
Channel positions           : Front: L C R, Side: L R, LFE
Sampling rate               : 48.0 kHz
Frame rate                  : 93.750 FPS (512 spf)
Bit depth                   : 24 bits
Compression mode            : Lossy
Stream size                 : 1.09 GiB (27%)
Language                    : English
Default                     : Yes
Forced                      : No

Audio #2
ID                          : 3
Format                      : DTS
Format/Info                 : Digital Theater Systems
Mode                        : 16
Format settings, Endianness : Big
Codec ID                    : A_DTS
Duration                    : 1 h 43 min
Bit rate mode               : Constant
Bit rate                    : 768 kb/s
Channel(s)                  : 6 channels
Channel positions           : Front: L C R, Side: L R, LFE
Sampling rate               : 48.0 kHz
Frame rate                  : 93.750 FPS (512 spf)
Bit depth                   : 24 bits
Compression mode            : Lossy
Stream size                 : 566 MiB (14%)
Language                    : Spanish
Default                     : No
Forced                      : No

Text #1
ID                          : 4
Format                      : UTF-8
Codec ID                    : S_TEXT/UTF8
Codec ID/Info               : UTF-8 Plain Text
Duration                    : 1 h 36 min
Bit rate                    : 23 b/s
Count of elements           : 725
Stream size                 : 16.6 KiB (0%)
Language                    : Spanish
Default                     : Yes
Forced                      : No

Text #2
ID                          : 5
Format                      : UTF-8
Codec ID                    : S_TEXT/UTF8
Codec ID/Info               : UTF-8 Plain Text
Duration                    : 1 h 36 min
Bit rate                    : 2 b/s
Count of elements           : 91
Stream size                 : 1.83 KiB (0%)
Default                     : No
Forced                      : No

Text #3
ID                          : 6
Format                      : PGS
Muxing mode                 : zlib
Codec ID                    : S_HDMV/PGS
Codec ID/Info               : Picture based subtitle format used on BDs/HD-DVDs
Duration                    : 1 h 36 min
Bit rate                    : 4 724 b/s
Count of elements           : 1450
Stream size                 : 3.26 MiB (0%)
Language                    : Spanish
Default                     : No
Forced                      : No

Text #4
ID                          : 7
Format                      : PGS
Muxing mode                 : zlib
Codec ID                    : S_HDMV/PGS
Codec ID/Info               : Picture based subtitle format used on BDs/HD-DVDs
Duration                    : 1 h 36 min
Bit rate                    : 550 b/s
Count of elements           : 182
Stream size                 : 388 KiB (0%)
Language                    : Spanish
Default                     : No
Forced                      : No

Menu
00:00:00.000                : en:Chapter 1
00:04:31.896                : en:Chapter 2
00:10:51.901                : en:Chapter 3
00:14:41.422                : en:Chapter 4
00:17:05.774                : en:Chapter 5
00:20:39.655                : en:Chapter 6
00:25:09.549                : en:Chapter 7
00:32:49.634                : en:Chapter 8
00:38:06.117                : en:Chapter 9
00:43:02.705                : en:Chapter 10
00:51:15.739                : en:Chapter 11
00:55:13.184                : en:Chapter 12
01:00:04.350                : en:Chapter 13
01:04:51.804                : en:Chapter 14
01:09:58.235                : en:Chapter 15
01:14:39.516                : en:Chapter 16
01:20:58.520                : en:Chapter 17
01:24:46.372                : en:Chapter 18
01:30:30.675                : en:Chapter 19
01:34:56.315                : en:Chapter 20

Imágenes



Descarga

The Thing (2011) 1080p Dual (Lat/Eng).



Cita: Mostrar

Contraseña

TheWoman00


Nota: agradezcan a thewoman00!!!
peliculas - programas
125 Puntos Score: 8.3/10
Visitas: 1834 Favoritos: 5
Ver los usuarios que votaron...
25 Comentarios Exclusivo|The Thing (2011) 1080p Placebo Crf20
:up:saludos amigo
Jaja esta era una de las pelis que tenia en lista de descarga por torrent, menos mal que no la descargue.  
@Leopulga bro tus capturas no se miran, podrias arreglarlas?
buena peli aunke me kedo con la vieja escuela
Otra que me llevo +10
Joder, se mando antes   Jajaja
Gracias por compartir tan excelente material
Y como dicen arriba, no se ven las capturas  
Muchas gracias x la subida y x la calidad !!! Ojalá puedan subir la de Carpenter - Russell y +/- con este peso (4 a 6 GB)
Gracias a thewoman00!!!
primera que bajo con este encoder
Cita Hect65: Mostrar
gracias bro q la disfrutes!

Cita WorldWarZ: Mostrar
q la disfrutes bro!

Cita luis_f: Mostrar
arreglado bro, gracias x decirme!

Cita AlexUpMx: Mostrar
disfrutala bro gracias x pasarte y los puntos!

Cita MARCE2006: Mostrar
disfrutala bro, aca esta ya la subi http://www.identi.li/index.php?topic=466913

Cita pfedor: Mostrar
q la disfrutes bro la mejor calidad posible en x264 8bit! saludos

Cita tony78ar: Mostrar
http://www.identi.li/index.php?topic=466913 ahi esta si te interesa bro!
Cita steampunk: Mostrar
gracias x pasarte y los puntos  
muchas gracias !!!
Cita xavimaldad: Mostrar
q la disfrutes!
gracias x los puntos @JQCkiller
Cita cesarbbcc: Mostrar
gracias a ti x pasarte y los puntos!
que grande amigo!! ya la tengo pero igual gracias +10
Cita RMETAL: Mostrar
gracias bro! hoy ip man 2
Cita Leopulga: Mostrar
muy buenoooooooooooo
Cita Espinal: Mostrar
disfrutala bro!
Uff buenísimo no me la he visto!!! Gracias por esta increíble calidad Leito eres el mas grande de todos no te doy puntos aún porqué no tengo pero te los diera todos   de hecho si fuese mujer te diera mi virginidad entera hasta sacarte la ultima gota jajajaja   por los buenos aportes pero ni modo, gracias sigan así!!!
@Leopulga
Cita darkmastr2: Mostrar
jajajaja no te preocupes bro espero la disfrutes !  
tanks por tu post
Cita 111seba111: Mostrar
disfrutala!
Para dejar un comentario Registrate! o.. eres ya usuario? Accede!
Facebook Identi