libardomm
"I read a book one day and my whole life was changed. — Orhan Pamuk"

Better Call Saul S03E07 1080p [2 Gb]

Better Call Saul S03E07 1080p WEB-DL DD5.1 H264-LiGaS [2.05GB]

General:


Ambientada en 2002, seis años antes de los acontecimientos relatadas en Breaking Bad, Better Call Saul es un spin-off centrado en el personaje de James 'Jimmy' McGuill (Bob Odenkirk), antes de que asuma la identidad de Saul Goodman, un abogado corrupto con un humor políticamente incorrecto vinculado al mundo criminal que empieza a crear una importante red de contactos en los bajos mundos. La serie narra los acontecimientos que llevan a McGuill a convertirse en Saul antes de trabajar con Walter White (Bryan Cranston), más conocido como Heisenberg, el narcotraficante más temido de Nuevo México.

A McGuill le acompañan su hermano Chuck (Michael McKean), también abogado y máximo referente de éxito para Jimmy; Kim Wexler (Rhea Seehorn), una vieja amiga del protagonista; y Mike Ehrmantraut (Jonathan Banks), policía retirado que trabaja formalmente como investigador privado, pero que en realidad es una tapadera para su labor como el hombre que resuelve los problemas de McGuill, a menudo con métodos violentos.

Otros actores que participan en Better Call Saul son Patrick Fabian, como el abogado Howard Hamlin; Michael Mando, que interpreta al peligroso criminal Nacho Varga; Julie Ann Emery, que será la delincuente Betsy Kettleman; y Jeremy Shamos, en el papel de Craig Kettleman, delincuente y marido de Betsy.


Técnicos: 


Unique ID                      : 220454081077532771567110744660802366941 (0xA5D9E95F55F862A39F0051427E416DDD)
Format                         : Matroska
Format version                 : Version 4 / Version 2
File size                      : 2.05 GiB
Duration                       : 52 min 33 s
Overall bit rate               : 5 596 kb/s
Movie name                     : Better.Call.Saul.S03E07.1080p.WEB-DL.DD5.1.H264-LiGaS
Encoded date                   : UTC 2017-05-23 09:05:40
Writing application            : mkvmerge v9.8.0 ('Kuglblids') 64bit
Writing library                : libebml v1.3.4 + libmatroska v1.4.5

Video
ID                             : 1
Format                         : AVC
Format/Info                    : Advanced Video Codec
Format profile                 : [email protected]
Format settings, CABAC         : Yes
Format settings, ReFrames      : 4 frames
Codec ID                       : V_MPEG4/ISO/AVC
Duration                       : 52 min 33 s
Bit rate                       : 5 211 kb/s
Width                          : 1 916 pixels
Height                         : 1 076 pixels
Display aspect ratio           : 16:9
Frame rate mode                : Constant
Frame rate                     : 23.976 (23976/1000) FPS
Color space                    : YUV
Chroma subsampling             : 4:2:0
Bit depth                      : 8 bits
Scan type                      : Progressive
Bits/(Pixel*Frame)             : 0.105
Stream size                    : 1.91 GiB (93%)
Title                          : Better.Call.Saul.S03E07.1080p.WEB-DL.DD5.1.H264-LiGaS
Language                       : English
Default                        : Yes
Forced                         : No
Color range                    : Limited
Color primaries                : BT.709
Transfer characteristics       : BT.709
Matrix coefficients            : BT.709

Audio
ID                             : 2
Format                         : AC-3
Format/Info                    : Audio Coding 3
Mode extension                 : CM (complete main)
Format settings, Endianness    : Big
Codec ID                       : A_AC3
Duration                       : 52 min 33 s
Bit rate mode                  : Constant
Bit rate                       : 384 kb/s
Channel(s)                     : 6 channels
Channel positions              : Front: L C R, Side: L R, LFE
Sampling rate                  : 48.0 kHz
Frame rate                     : 31.250 FPS (1536 spf)
Bit depth                      : 16 bits
Compression mode               : Lossy
Delay relative to video        : -42 ms
Stream size                    : 144 MiB (7%)
Title                          : Better.Call.Saul.S03E07.1080p.WEB-DL.DD5.1.H264-LiGaS
Language                       : English
Default                        : Yes
Forced                         : No

Text
ID                             : 3
Format                         : UTF-8
Codec ID                       : S_TEXT/UTF8
Codec ID/Info                  : UTF-8 Plain Text
Duration                       : 50 min 16 s
Bit rate                       : 62 b/s
Count of elements              : 876
Stream size                    : 23.1 KiB (0%)
Language                       : English
Default                        : Yes
Forced                         : No





Nota: Los subtítulos están aparte. Para que su reproductor los reconozca deben ponerle exactamente el mismo nombre del archivo de vídeo.
peliculas - programas
12 Puntos Score: 6/10
Visitas: 354 Favoritos: 0
Ver los usuarios que votaron...
4 Comentarios Better Call Saul S03E07 1080p [2 Gb]
Ups de veras me ganaste los sub ahora si son Latinos o son españoleta de "Joder" "Tio" "coño" jejeje gracias por puntuar es que supongo que tienes muy buen internet para subir tan rapido Saludos
@freemantin Tengo el ancho de banda de una Universidad en Colombia jajajaja. Un saludo.
No manches que suerte  
Para dejar un comentario Registrate! o.. eres ya usuario? Accede!
Facebook Identi