Logan (2017) 1080p Latino 5.1 Bluray-Dpelis



SinopsisAño 2024. La población mutante se ha visto drásticamente reducida y los X-Men se han visto obligados a separarse. Logan, cuyos poderes de regeneración se han debilitado, ha caído en el alcohol y se encarga de cuidar al anciano y enfermo Profesor X. Un día, una pequeña niña aparecerá en sus vidas y Lobezno tendrá que ayudarla. Se llama Laura y tendrán que cuidarla de unos peligrosos sicarios que van detrás de ella, aunque sea capaz de defenderse por sí misma con su extraordinaria destreza de combate. Por esta razón, comienza una implacable persecución hacia los mutantes que protegen a Laura y el gran secreto que ella esconde. En esta tercera entrega protagonizada por Lobezno podemos ver a los superhéroes ahogándose en sus propios problemas: envejecidos, enfermos y con pocos recursos económicos.

Datos de Peliculas


Imagenes







Enlaces de Mega


NO password
descargar peliculas - descargar programas
90 Puntos Score: 9/10
Visitas: 4007 Favoritos: 5
Ver los usuarios que votaron...
22 Comentarios Logan (2017) 1080p Latino 5.1 Bluray-Dpelis
Gracias por compartir  
Spoiler Spoiler xd
es version cropeada o ya es final limpia bro?
@enrikecj  @riveron809 gracias los puntos @Boris731 gracias lo puntos. @Programin    @black043 si, final. cuando es cropp lo dire en el post. Saludos a todos
Muchas gracias, se ve y escuchan un 100. +5  
gracias bro... la estaba esperando
@dpeliculas : Generalmente las capturas se sacan de los primero 10 minutos.
BORRA ESE SPOILER!!!
eres un mentiroso bro,   tarde casi un dia descargandola porque mi internet es superlento y al final al revisar susu caracteristicas veo que el audio latino es 2.0, eres mala leche bro  
@black043 jajaja en serio, me vienes con eso , yo no soy de los que mientes el audio es directo del bluray asi que no trate de fastidiarme
@dpeliculas al descargarlo lo comprobe con MediaInfo y Formatfactory, y me arrojan que el español es de solo 2 canales, pero el ingles si es 5.1,
asi que compruebalo tu, como quiera ya lo borre y descargue la de riveron que esa si que es de 6 canales tanto el ingles como el latino.
pos la verdad que tienes razon @black043  dice 2.ceeeerooooo
@Fox_you si bro, nos engaño feo  
@black043 @Fox_you es cierto es descargaron los enlaces de la version anterior. disculpa. corregi los enlaces.
asi es la media info
Logan.2017.1080p.lATINO.mkv

Format                      : Matroska

Format version              : Version 4 / Version 2
File size                   : 4.05 GiB
Duration                    : 2 h 17 min
Overall bit rate            : 4 218 kb/s
Movie name                  : DPeliculasHDMega.ORG
Encoded date                : UTC 2017-05-22 22:35:24 / UTC 2017-05-22T01:25:34Z
Writing application         : mkvmerge v10.0.0 ('To Drown In You') 64bit
Writing library             : libebml v1.3.4 + libmatroska v1.4.5 / Lavf57.7.2

Video
ID                          : 1
Format                      : AVC
Format/Info                 : Advanced Video Codec
Format profile              : [email protected]
Format settings, CABAC      : Yes
Format settings, ReFrames   : 4 frames
Codec ID                    : V_MPEG4/ISO/AVC
Duration                    : 2 h 17 min
Bit rate                    : 3 500 kb/s
Width                       : 1 920 pixels
Height                      : 804 pixels
Display aspect ratio        : 2.40:1
Frame rate mode             : Constant
Frame rate                  : 23.976 (24000/1001) FPS
Color space                 : YUV
Chroma subsampling          : 4:2:0
Bit depth                   : 8 bits
Scan type                   : Progressive
Bits/(Pixel*Frame)          : 0.095
Stream size                 : 3.23 GiB (80%)
Writing library             : x264 core 148 r2708 86b7198
Encoding settings           : cabac=1 / ref=3 / deblock=1:0:0 / analyse=0x3:0x113 / me=hex / subme=7 / psy=1 / psy_rd=1.00:0.00 / mixed_ref=1 / me_range=16 / chroma_me=1 / trellis=1 / 8x8dct=1 / cqm=0 / deadzone=21,11 / fast_pskip=1 / chroma_qp_offset=-2 / threads=25 / lookahead_threads=4 / sliced_threads=0 / nr=0 / decimate=1 / interlaced=0 / bluray_compat=0 / constrained_intra=0 / bframes=3 / b_pyramid=2 / b_adapt=1 / b_bias=0 / direct=1 / weightb=1 / open_gop=0 / weightp=2 / keyint=240 / keyint_min=24 / scenecut=40 / intra_refresh=0 / rc_lookahead=40 / rc=abr / mbtree=1 / bitrate=3500 / ratetol=1.0 / qcomp=0.60 / qpmin=0 / qpmax=69 / qpstep=4 / vbv_maxrate=62500 / vbv_bufsize=78125 / nal_hrd=none / filler=0 / ip_ratio=1.40 / aq=1:1.00
Default                     : Yes
Forced                      : No
Color range                 : Limited
Color primaries             : BT.709
Transfer characteristics    : BT.709
Matrix coefficients         : BT.709
Statistics Tags Issue       : mkvmerge v10.0.0 ('To Drown In You') 64bit 2017-05-22 22:35:24 / mkvmerge v10.0.0 ('To Drown In You') 64bit 2017-05-22 22:35:24 / UTC 2017-05-22T01:25:34Z
FromStats_BitRate           : 3447929
FromStats_Duration          : 02:17:23.277000000
FromStats_FrameCount        : 197641
FromStats_StreamSize        : 3552779581

Audio #1
ID                          : 2
Format                      : AC-3
Format/Info                 : Audio Coding 3
Format settings, Endianness : Big
Codec ID                    : A_AC3
Duration                    : 2 h 17 min
Bit rate mode               : Constant
Bit rate                    : 384 kb/s
Channel(s)                  : 6 channels
Channel positions           : Front: L C R, Side: L R, LFE
Sampling rate               : 48.0 kHz
Frame rate                  : 31.250 FPS (1536 spf)
Bit depth                   : 16 bits
Compression mode            : Lossy
Delay relative to video     : -5 ms
Stream size                 : 377 MiB (9%)
Language                    : Spanish
Service kind                : Complete Main
Default                     : Yes
Forced                      : No
Statistics Tags Issue       : mkvmerge v10.0.0 ('To Drown In You') 64bit 2017-05-22 22:35:24 / mkvmerge v10.0.0 ('To Drown In You') 64bit 2017-05-22 22:35:24 / UTC 2017-05-22T01:25:34Z
FromStats_BitRate           : 384000
FromStats_Duration          : 02:17:23.328000000
FromStats_FrameCount        : 257604
FromStats_StreamSize        : 395679744

Audio #2
ID                          : 3
Format                      : AC-3
Format/Info                 : Audio Coding 3
Format settings, Endianness : Big
Codec ID                    : A_AC3
Duration                    : 2 h 17 min
Bit rate mode               : Constant
Bit rate                    : 384 kb/s
Channel(s)                  : 6 channels
Channel positions           : Front: L C R, Side: L R, LFE
Sampling rate               : 48.0 kHz
Frame rate                  : 31.250 FPS (1536 spf)
Bit depth                   : 16 bits
Compression mode            : Lossy
Delay relative to video     : -5 ms
Stream size                 : 377 MiB (9%)
Title                       : Surround
Language                    : English
Service kind                : Complete Main
Default                     : No
Forced                      : No
Statistics Tags Issue       : mkvmerge v10.0.0 ('To Drown In You') 64bit 2017-05-22 22:35:24 / mkvmerge v10.0.0 ('To Drown In You') 64bit 2017-05-22 22:35:24 / UTC 2017-05-22T01:25:34Z
FromStats_BitRate           : 384000
FromStats_Duration          : 02:17:23.264000000
FromStats_FrameCount        : 257602
FromStats_StreamSize        : 395676672

Text #1
ID                          : 4
Format                      : UTF-8
Codec ID                    : S_TEXT/UTF8
Codec ID/Info               : UTF-8 Plain Text
Title                       : Forzados
Language                    : Spanish
Default                     : Yes
Forced                      : No
Statistics Tags Issue       : mkvmerge v10.0.0 ('To Drown In You') 64bit 2017-05-22 22:35:24 / mkvmerge v10.0.0 ('To Drown In You') 64bit 2017-05-22 22:35:24 / UTC 2017-05-22T01:25:34Z
FromStats_BitRate           : 0
FromStats_Duration          : 01:34:24.450000000
FromStats_FrameCount        : 11
FromStats_StreamSize        : 290

Text #2
ID                          : 5
Format                      : UTF-8
Codec ID                    : S_TEXT/UTF8
Codec ID/Info               : UTF-8 Plain Text
Language                    : Spanish
Default                     : No
Forced                      : No
Statistics Tags Issue       : mkvmerge v10.0.0 ('To Drown In You') 64bit 2017-05-22 22:35:24 / mkvmerge v10.0.0 ('To Drown In You') 64bit 2017-05-22 22:35:24 / UTC 2017-05-22T01:25:34Z
FromStats_BitRate           : 39
FromStats_Duration          : 02:09:03.203000000
FromStats_FrameCount        : 1372
FromStats_StreamSize        : 37801

Text #3
ID                          : 6
Format                      : UTF-8
Codec ID                    : S_TEXT/UTF8
Codec ID/Info               : UTF-8 Plain Text
Language                    : English
Default                     : No
Forced                      : No
Statistics Tags Issue       : mkvmerge v10.0.0 ('To Drown In You') 64bit 2017-05-22 22:35:24 / mkvmerge v10.0.0 ('To Drown In You') 64bit 2017-05-22 22:35:24 / UTC 2017-05-22T01:25:34Z
FromStats_BitRate           : 66
FromStats_Duration          : 02:14:57.000000000
FromStats_FrameCount        : 1953
FromStats_StreamSize        : 67260

Menu
00:00:00.000                : :00:00:00.000
00:05:35.126                : :00:05:35.126
00:09:18.558                : :00:09:18.558
00:11:41.159                : :00:11:41.159
00:16:23.274                : :00:16:23.232
00:20:11.669                : :00:20:11.669
00:24:26.715                : :00:24:26.715
00:26:11.904                : :00:26:11.904
00:30:13.312                : :00:30:13.311
00:31:59.167                : :00:31:59.126
00:34:56.928                : :00:34:56.886
00:39:53.474                : :00:39:53.433
00:42:55.573                : :00:42:55.573
00:45:03.826                : :00:45:03.826
00:47:53.454                : :00:47:53.412
00:49:39.560                : :00:49:39.560
00:52:14.423                : :00:52:14.423
00:54:30.517                : :00:54:30.517
00:57:44.211                : :00:57:44.211
01:00:10.398                : :01:00:10.398
01:03:53.830                : :01:03:53.830
01:06:55.512                : :01:06:55.511
01:09:54.816                : :01:09:54.774
01:13:15.892                : :01:13:15.891
01:18:43.636                : :01:18:43.594
01:21:50.906                : :01:21:50.906
01:25:52.230                : :01:25:52.189
01:28:38.814                : :01:28:38.813
01:32:41.473                : :01:32:41.431
01:35:29.724                : :01:35:29.724
01:41:03.474                : :01:41:03.432
01:43:39.880                : :01:43:39.880
01:49:38.989                : :01:49:38.989
01:54:20.604                : :01:54:20.562
01:57:00.472                : :01:57:00.430
01:59:20.445                : :01:59:20.403
02:01:14.434                : :02:01:14.434
02:05:09.627                : :02:05:09.627
02:06:40.551                : :02:06:40.551
02:11:07.860                : :02:11:07.860
ok, gracias bro, es de respetar alguien que acepta su error  
Para dejar un comentario Registrate! o.. eres ya usuario? Accede!
Facebook Identi