libardomm
"I read a book one day and my whole life was changed. — Orhan Pamuk"

El amor en los tiempos del cólera(2007) 720

El amor en los tiempos del cólera(2007) 720
Subtitulos en Español



Adaptación de la famosa novela del Premio Nobel colombiano Gabriel García Márquez. Florentino Ariza es un poeta que se enamora locamente de Fermina Daza, una joven que pertenece a una familia acaudalada. Comienza entre ellos una apasionada correspondencia epistolar que se verá abruptamente interrumpida cuando el padre de ella, tras descubrir el idilio, decide llevársela lejos de su amante.

Título original: Love in the Time of Cholera
Año: 2007
Duración: 139 min.
País: Estados Unidos
Director: Mike Newell
Guión: Ronald Harwood (Novela: Gabriel García Márquez)
Música: Antonio Pinto (Tema: Shakira)
Fotografía: Affonso Beato
Reparto: Giovanna Mezzogiorno, Javier Bardem, John Leguizamo, Laura Elena Harring, Benjamin Bratt, Catalina Sandino Moreno, Hector Elizondo, Ana Claudia Talancón, Liev Schreiber, Angie Cepeda, Alicia Borrachero, Fernanda Montenegro, Unax Ugalde
Productora: New Line Cinema / Stone Village Pictures
Género: Romance. Drama | Realismo mágico. Drama romántico

 Datos Tecnicos:
Complete name                  : C:\Users\Usuario\Downloads\love in the time of cholera 2007 720p brrip sujaidr\Love in the Time of Cholera (2007) 720p.BRrip.Sujaidr.mkv
Format                         : Matroska
Format version                 : Version 4 / Version 2
File size                      : 1.37 GiB
Duration                       : 2 h 12 min
Overall bit rate               : 1 482 kb/s
Encoded date                   : UTC 2013-11-17 15:44:20
Writing application            : mkvmerge v6.3.0 ('You can't stop me!') built on Jun 28 2013 20:09:41
Writing library                : libebml v1.3.0 + libmatroska v1.4.0

Video
ID                             : 1
Format                         : AVC
Format/Info                    : Advanced Video Codec
Format profile                 : [email protected]
Format settings, CABAC         : Yes
Format settings, ReFrames      : 4 frames
Codec ID                       : V_MPEG4/ISO/AVC
Duration                       : 2 h 12 min
Bit rate                       : 1 261 kb/s
Width                          : 1 278 pixels
Height                         : 720 pixels
Display aspect ratio           : 16:9
Frame rate mode                : Constant
Frame rate                     : 25.000 FPS
Color space                    : YUV
Chroma subsampling             : 4:2:0
Bit depth                      : 8 bits
Scan type                      : Progressive
Bits/(Pixel*Frame)             : 0.055
Stream size                    : 1.14 GiB (83%)
Writing library                : x264 core 133 r2334 a3ac64b

Default                        : Yes
Forced                         : No

Audio
ID                             : Ingles
Format                         : AC-3
Format/Info                    : Audio Coding 3
Mode extension                 : CM (complete main)
Format settings, Endianness    : Big
Codec ID                       : A_AC3
Duration                       : 2 h 12 min
Bit rate mode                  : Constant
Bit rate                       : 224 kb/s
Channel(s)                     : 2 channels
Channel positions              : Front: L R
Sampling rate                  : 48.0 kHz
Frame rate                     : 31.250 FPS (1536 spf)
Bit depth                      : 16 bits
Compression mode               : Lossy
Stream size                    : 213 MiB (15%)
Default                        : Yes
Forced                         : No

Audio: Ingles
Subtítulos: Español







Nota importante: Recomiendo altamente leer el libro, puesto que las descripciones de García Marquez son cosa de otro mundo. Una novela sin precedentes.
Un saludo.
descargar peliculas - descargar programas
74 Puntos Score: 9.3/10
Visitas: 1158 Favoritos: 3
Ver los usuarios que votaron...
15 Comentarios El amor en los tiempos del cólera(2007) 720
Gracias, una buena película, una pregunta tienes memorias de  mis putas tristes también ?
recomiendo leer el libro primero y luego ver la pelicual
@nigthfox92 Si, yo tuve la oportunidad de leerlo en conjunto con mi novia. Fue una de las experiencias mas sublimes que se pueden vivir en la vida. Una joya imprescindible.
Muchas gracias por el aporte amigo.  
@epalada Si. Esta semana la subo.
Cita libardomm: Mostrar
Gracias
muchas gracias
Muchas gracias, se que no voy a leer el libro, al menos gracias a tu esfuerzo puedo ver la película.  
@Fortinero1 Deberías intentarlo. El libro es de los mejores que he leído en mi vida.
libardomm
Gracias Totales Por Compartir!!!!

 
Mil gracias tan buena e ilustrativa como el libro del inigualable GABO, un abrazo
Muchas gracias !!!  
Gracias amigo.  
Para dejar un comentario Registrate! o.. eres ya usuario? Accede!
Facebook Identi