Leopulga
"Ripeos AVC y HEVC solo para coleccionistas."

Exclusivo|Last Shift (2014) 1080p Placebo CRF20

RIPEOS EN LA MÁXIMA CALIDAD POSIBLE EN AVC (X264)

Esto se consigue mediante una Configuración (CFG) de ripeo exigente llamada Placebo y con un CRF20 que es lo que alcanza a distinguir el ojo humano y dejando unos rips al peso menor posible con calidad me animaria a decir casi como el Blu-ray.

The Last Shift (2014) 1080p Inglés+Subtitulos




Sinopsis

El primer turno de la policía novata Jessica Loren tiene lugar en una comisaría que cerrará sus puertas esa misma noche para trasladarse a nuevas instalaciones. Pero lo que parece una noche rutinaria se convertirá en una pesadilla viviente cuando el líder del culto satánico John Michael Paymon, que se suicidó hace justo un año en esa comisaría, vuelva para vengarse...

Ficha Técnica

Fuente: BD25 (USA)
Ripeo: Placebo CRF20
Tiempo de Ripeo: 52 horas.
Audios: Inglés DTS (BD).
Subtítulos: Si (SRT/PGS-Español)
IMDB: 5.7


Mediainfo

General
Unique ID                   : 210761693313990841139859012642789955932 (0x9E8F39C2C7044D24BD7C566C4BFC995C)
Complete name               : A:Leo ManenttiLast Shift (2014) Blu-ray 1080p Inglés [AVC].mkv
Format                      : Matroska
Format version              : Version 4 / Version 2
File size                   : 7.26 GiB
Duration                    : 1h 27mn
Overall bit rate            : 11.9 Mbps
Encoded date                : UTC 2017-05-21 18:48:13
Writing application         : mkvmerge v8.6.1 ('Flying') 64bit
Writing library             : libebml v1.3.3 + libmatroska v1.4.4
DURATION                    : 01:23:40.848000000
NUMBER_OF_FRAMES            : 856
NUMBER_OF_BYTES             : 25906
_STATISTICS_WRITING_APP     : mkvmerge v8.6.1 ('Flying') 64bit
_STATISTICS_WRITING_DATE_UT : 2017-05-21 18:48:13
_STATISTICS_TAGS            : BPS DURATION NUMBER_OF_FRAMES NUMBER_OF_BYTES

Video
ID                          : 1
Format                      : AVC
Format/Info                 : Advanced Video Codec
Format profile              : [email protected]
Format settings, CABAC      : Yes
Format settings, ReFrames   : 4 frames
Codec ID                    : V_MPEG4/ISO/AVC
Duration                    : 1h 27mn
Bit rate                    : 10.1 Mbps
Width                       : 1 920 pixels
Height                      : 1 080 pixels
Display aspect ratio        : 16:9
Frame rate mode             : Constant
Frame rate                  : 23.976 fps
Color space                 : YUV
Chroma subsampling          : 4:2:0
Bit depth                   : 8 bits
Scan type                   : Progressive
Bits/(Pixel*Frame)          : 0.204
Stream size                 : 6.19 GiB (85%)
Title                       : Last Shift (2014) BD25 Leonardo
Writing library             : x264 core 148 r2744 b97ae06
Encoding settings           : cabac=1 / ref=4 / deblock=1:0:0 / analyse=0x3:0x133 / me=tesa / subme=11 / psy=1 / psy_rd=1.00:0.00 / mixed_ref=1 / me_range=24 / chroma_me=1 / trellis=2 / 8x8dct=1 / cqm=0 / deadzone=21,11 / fast_pskip=0 / chroma_qp_offset=-2 / threads=12 / lookahead_threads=3 / sliced_threads=0 / nr=0 / decimate=1 / interlaced=0 / bluray_compat=0 / constrained_intra=0 / bframes=16 / b_pyramid=2 / b_adapt=2 / b_bias=0 / direct=3 / weightb=1 / open_gop=0 / weightp=2 / keyint=240 / keyint_min=23 / scenecut=40 / intra_refresh=0 / rc_lookahead=60 / rc=crf / mbtree=1 / crf=20.0 / qcomp=0.60 / qpmin=0 / qpmax=69 / qpstep=4 / vbv_maxrate=62500 / vbv_bufsize=78125 / crf_max=0.0 / nal_hrd=none / filler=0 / ip_ratio=1.40 / aq=1:1.00
Default                     : Yes
Forced                      : No

Audio
ID                          : 2
Format                      : DTS
Format/Info                 : Digital Theater Systems
Mode                        : 16
Format settings, Endianness : Big
Codec ID                    : A_DTS
Duration                    : 1h 27mn
Bit rate mode               : Constant
Bit rate                    : 1 509 Kbps
Channel(s)                  : 6 channels
Channel positions           : Front: L C R, Side: L R, LFE
Sampling rate               : 48.0 KHz
Bit depth                   : 24 bits
Compression mode            : Lossy
Stream size                 : 945 MiB (13%)
Title                       : Inglés
Language                    : English
Default                     : Yes
Forced                      : No

Text #1
ID                          : 3
Format                      : PGS
Muxing mode                 : zlib
Codec ID                    : S_HDMV/PGS
Codec ID/Info               : Picture based subtitle format used on BDs/HD-DVDs
Title                       : Español Latino pgs
Language                    : Spanish
Default                     : No
Forced                      : No

Text #2
ID                          : 4
Format                      : UTF-8
Codec ID                    : S_TEXT/UTF8
Codec ID/Info               : UTF-8 Plain Text
Title                       : Español Latino srt
Language                    : Spanish
Default                     : Yes
Forced                      : No

Menu
00:00:00.000                : en:Chapter 01
00:06:04.114                : en:Chapter 02
00:10:57.532                : en:Chapter 03
00:15:02.110                : en:Chapter 04
00:21:18.486                : en:Chapter 05
00:28:57.986                : en:Chapter 06
00:34:16.513                : en:Chapter 07
00:44:24.120                : en:Chapter 08
00:56:38.228                : en:Chapter 09
01:02:50.392                : en:Chapter 10
01:11:40.004                : en:Chapter 11
01:21:55.327                : en:Chapter 12



Imágenes



Descarga

Last Shift (2014) 1080p Inglés (Sub)

Cita: Mostrar

Contraseña

NO TIENE

Agradecimientos

Nota: BD25 porque no existe BD50 salu2222
peliculas - programas
107 Puntos Score: 8.9/10
Visitas: 1893 Favoritos: 2
Ver los usuarios que votaron...
19 Comentarios Exclusivo|Last Shift (2014) 1080p Placebo CRF20
Excelente aporte bajando, es de esas peli que no reciben mucha publicidad, pero que estan, muy buena para verla.  
ya me descargue como 10 pelis de aportes tuyos, la verdad esta genial esta tipo de ripeo. Sigue asi!  
Cita WorldWarZ: Mostrar
si bro es lo q trato de ahcer xq las buenas clasicas y conocidas ya tengo casi todas jajaja
Cita JohannID: Mostrar
q bueno q te gusten bro, lamentablemente en este codec creo terminare la saga de ip man y no mas bro.. ya q empezare a usar el x265 a 10bit pero si hago alguna en palcebo la comparto para usts saludos y gracias x pasarte!
Gracias amigo,saludos, gran aporte y con la gran calidad, excelente aporte,
Cita Hect65: Mostrar
k la disfrutes amigo!
@OutworK @SALAGUIN7K gracias x los puntos bros!
no la conozco esta buena? +5 gracias amigo!!!!!
Cita RMETAL: Mostrar
si bro, es bastante entretenida y se deja ver! salu2 y gracias x pasarte y los puntos!
Cita Leopulga: Mostrar
muy bueno hay que verla entonces!!!!!!!!
Cita RMETAL: Mostrar
@AlexUpMx gracias x los puntos!!
@elgamer242 gracias x los puntos!
@hserra gracias x los puntos!
Gracias por el aporte amigo saludos
Cita Duliori_28: Mostrar
q la disfrutes amigo! gracias x los puntos!
Cita NIGHTKILLE: Mostrar
de nada disfrutala!
Gracias por el aporte estimado!!
Cita itofeddy: Mostrar
que lo disfrutes!  
Para dejar un comentario Registrate! o.. eres ya usuario? Accede!
Facebook Identi