Koe no Katachi [Mega] [Estreno]

Un Voz Silenciosa-Koe no Katachi
La historia gira en torno a Shoko Nishimiya, una estudiante de primaria que es sorda de nacimiento y que al cambiarse de colegio comienza a recibir acoso escolar por parte de sus nuevos compañeros. Uno de los principales responsables es Ishida Shouya quien termina por forzar que Nishimiya se cambie de escuela.
Como resultado de los actos contra Shoko las autoridades del colegio toman cartas en el asunto y el curso señala como único responsable a Ishida, quien comienza a sentir el acoso impuesto por sus propios compañeros, al mismo tiempo que termina aislándose de los que alguna vez fueron sus amigos.
Años después, Ishida intenta corregir su mal actuar, buscando la redención frente a Nishimiya.

En el último capítulo del manga, publicado en la edición No. 51 del 2014 del Sh?kan Sh?nen Magazine publicado por K?dansha, se anunció que Koe no Katachi contaría con una adaptación animada. En el séptimo y último tank?bon del manga, publicado en diciembre del 2014 se dio la noticia que la adaptación animada que se había anunciado antes, sería en forma de película.13 Hasta octubre del 2015, se dio a conocer que la película sería animada por Kyoto Animation (que ha animado series como Suzumiya Haruhi no Y?utsuCLANNADHy?kaHibike! Euphonium, etc.) y dirigida por Naoko Yamada (directora de series como K-ON! y Tamako Market, del mismo Kyoto Animation). Además, en diciembre del 2015 se confirmó que Shochiku distribuiría la película en Japón y que esta se estrenaría durante la temporada de otoño de 2016.14 15 16 En abril de 2016 se puso en linea la página oficial de la película; con ella se reveló también su teaser y su póster preliminar, además de anunciarse la participación de Reiko Yoshida (Non Non BiyoriYowamushi Pedal, etc.) para trabajar en el guión y de Futoshi Nishiya (Nichij?Free!, etc.) en el diseño de personajes. 
[sup][/sup]
[sup][/sup]
[sup][/sup]
[sup][/sup]
[sup][/sup]
[sup][/sup]
[sup][/sup]
[sup][/sup]
[sup][/sup]
MEDIA INFO
Format                      : Matroska
Format version              : Version 4 / Version 2
File size                   : 8.80 GiB
Duration                    : 2 h 10 min
Overall bit rate mode       : Variable
Overall bit rate            : 9 683 kb/s
Movie name                  : [Anime Land] Koe no Katachi (BDRip 1080p Hi10P FLAC) RAW
Encoded date                : UTC 2017-05-19 11:32:10
Writing application         : mkvmerge v9.4.0 ('Knurl') 64bit
Writing library             : libebml v1.3.4 + libmatroska v1.4.5
Attachments                 : Bahij_Greta_Arabic-Regular_0_0.ttf / hacen-casablanca-heavy_0_0.ttf / MTCORSVA_0.TTF / ufonts.com_libbyscript_0.ttf

Video
ID                          : 2
Format                      : AVC
Format/Info                 : Advanced Video Codec
Format profile              : High [email protected]
Format settings, CABAC      : Yes
Format settings, ReFrames   : 16 frames
Codec ID                    : V_MPEG4/ISO/AVC
Duration                    : 2 h 10 min
Bit rate                    : 6 530 kb/s
Width                       : 1 920 pixels
Height                      : 1 036 pixels
Display aspect ratio        : 1.85:1
Frame rate mode             : Constant
Frame rate                  : 23.976 (24000/1001) FPS
Color space                 : YUV
Chroma subsampling          : 4:2:0
Bit depth                   : 10 bits
Scan type                   : Progressive
Bits/(Pixel*Frame)          : 0.137
Stream size                 : 5.93 GiB (67%)
Title                       : H264 Hi10P 1080p By Omar
Writing library             : x264 core 148 r2721kMod 72d53ab
Encoding settings           : cabac=1 / ref=16 / deblock=1:-1:-1 / analyse=0x3:0x133 / me=umh / subme=10 / psy=1 / fade_compensate=0.00 / psy_rd=1.00:0.15 / mixed_ref=1 / me_range=24 / chroma_me=1 / trellis=2 / 8x8dct=1 / cqm=0 / deadzone=21,11 / fast_pskip=0 / chroma_qp_offset=-3 / threads=18 / lookahead_threads=4 / sliced_threads=0 / nr=0 / decimate=1 / interlaced=0 / bluray_compat=0 / constrained_intra=0 / fgo=0 / bframes=16 / b_pyramid=2 / b_adapt=2 / b_bias=0 / direct=3 / weightb=1 / open_gop=0 / weightp=2 / keyint=250 / keyint_min=23 / scenecut=40 / intra_refresh=0 / rc_lookahead=60 / rc=crf / mbtree=1 / crf=15.0000 / qcomp=0.80 / qpmin=0 / qpmax=81 / qpstep=4 / ip_ratio=1.40 / aq=2:1.00
Language                    : Japanese
Default                     : Yes
Forced                      : No

Audio
ID                          : 3
Format                      : FLAC
Format/Info                 : Free Lossless Audio Codec
Codec ID                    : A_FLAC
Duration                    : 2 h 10 min
Bit rate mode               : Variable
Bit rate                    : 3 150 kb/s
Channel(s)                  : 6 channels
Channel positions           : Front: L C R, Side: L R, LFE
Sampling rate               : 48.0 kHz
Frame rate                  : 11.719 FPS (4096 spf)
Bit depth                   : 24 bits
Stream size                 : 2.86 GiB (33%)
Title                       : FLAC, Level 8, 5.1 By Omar
Writing library             : libFLAC 1.2.1 (UTC 2007-09-17)
Language                    : Japanese
Default                     : Yes
Forced                      : No

Text
ID                          : 1
Format                      : ASS
Codec ID                    : S_TEXT/ASS
Codec ID/Info               : Advanced Sub Station Alpha
Duration                    : 2 h 8 min
Bit rate                    : 726 b/s
Count of elements           : 5267
Compression mode            : Lossless
Stream size                 : 683 KiB (0%)
Default                     : Yes
Forced                      : No

Menu
00:00:00.000                : ja:1
00:13:10.081                : ja:2
00:22:55.374                : ja:3
00:34:50.338                : ja:4
00:44:34.171                : ja:5
00:53:08.143                : ja:6
01:03:58.710                : ja:7
01:15:37.283                : ja:8
01:30:03.189                : ja:9
01:44:33.601                : ja:10
01:56:25.812                : ja:11
02:05:56.048                : ja:12
SUBS EN ESPAÑOL
descargar peliculas - descargar programas
76 Puntos Score: 8.4/10
Visitas: 1502 Favoritos: 6
Ver los usuarios que votaron...
8 Comentarios Koe no Katachi [Mega] [Estreno]
gracias buen contenido
Muchas gracias por la peli
se ve interesante, gracias por compartir
Veamos... gracias me lo llevo, saludos
Muchas gracias  
Para dejar un comentario Registrate! o.. eres ya usuario? Accede!
Facebook Identi