Repo Men Unrated (Sin Censura) 720p



Repo Men (también llamada en español Los Recolectores) es una
película de ciencia ficción de 2010 dirigida por Miguel Sapochnick, y
protagonizada por Jude Law y Forest Whitaker. Está basada en la novela
Repossession Mambo de Eric García.

Ambientada en un futuro
cercano cuando los órganos artificiales se pueden comprar a crédito, la
historia gira en torno a Remy (Jude Law), un hombre de espaldas anchas y
 una terminal en la cabeza que trabaja como repositor para un banco de
órganos artificiales. En este caso, si los compradores no pagan las
cuotas mensuales, Remy y su compañero Jake Freivald (Forest Whitaker)
los recuperan. Jake y Remy son considerados los mejores repositores de
la agencia.

INFO Del Video:

Complete name               : Repo.Men.Unrated.2010.720p.mkv
Format                      : Matroska
Format version              : Version 4 / Version 2
File size                   : 4.26 GiB
Duration                    : 1 h 59 min
Overall bit rate            : 5 101 kb/s
Movie name                  : Repo Men - Latino English - 720p
Encoded date                : UTC 2016-05-06 17:26:13
Writing application         : mkvmerge v8.9.0 ('Father Daughter') 64bit
Writing library             : libebml v1.3.3 + libmatroska v1.4.4
Cover                       : No

Video
ID                          : 1
Format                      : AVC
Format/Info                 : Advanced Video Codec
Format profile              : [email protected]
Format settings, CABAC      : Yes
Format settings, ReFrames   : 12 frames
Codec ID                    : V_MPEG4/ISO/AVC
Duration                    : 1 h 59 min
Bit rate                    : 4 200 kb/s
Width                       : 1 280 pixels
Height                      : 544 pixels
Display aspect ratio        : 2.35:1
Frame rate mode             : Constant
Frame rate                  : 23.976 (24000/1001) FPS
Color space                 : YUV
Chroma subsampling          : 4:2:0
Bit depth                   : 8 bits
Scan type                   : Progressive
Bits/(Pixel*Frame)          : 0.252
Stream size                 : 3.51 GiB (82%)
Title                       : Repo Men
Writing library             : x264 core 130 r2273 b3065e6
Encoding settings           : cabac=1 / ref=12 / deblock=1:-3:-3 / analyse=0x3:0x133 / me=umh / subme=11 / psy=1 / psy_rd=1.00:0.00 / mixed_ref=1 / me_range=32 / chroma_me=1 / trellis=2 / 8x8dct=1 / cqm=0 / deadzone=21,11 / fast_pskip=0 / chroma_qp_offset=-2 / threads=24 / lookahead_threads=2 / sliced_threads=0 / nr=0 / decimate=0 / interlaced=0 / bluray_compat=0 / constrained_intra=0 / bframes=6 / b_pyramid=2 / b_adapt=2 / b_bias=0 / direct=3 / weightb=1 / open_gop=0 / weightp=2 / keyint=240 / keyint_min=23 / scenecut=40 / intra_refresh=0 / rc_lookahead=60 / rc=2pass / mbtree=1 / bitrate=4200 / ratetol=1.0 / qcomp=0.60 / qpmin=0 / qpmax=69 / qpstep=4 / cplxblur=20.0 / qblur=0.5 / vbv_maxrate=22000 / vbv_bufsize=22000 / nal_hrd=none / ip_ratio=1.40 / aq=1:0.60
Default                     : Yes
Forced                      : No

Audio #1
ID                          : 2
Format                      : AC-3
Format/Info                 : Audio Coding 3
Format settings, Endianness : Big
Codec ID                    : A_AC3
Duration                    : 1 h 59 min
Bit rate mode               : Constant
Bit rate                    : 448 kb/s
Channel(s)                  : 6 channels
Channel positions           : Front: L C R, Side: L R, LFE
Sampling rate               : 48.0 kHz
Frame rate                  : 31.250 FPS (1536 spf)
Bit depth                   : 16 bits
Compression mode            : Lossy
Delay relative to video     : 200 ms
Stream size                 : 383 MiB (9%)
Title                       : Audio Latino
Language                    : Spanish
Service kind                : Complete Main
Default                     : Yes
Forced                      : Yes

Audio #2
ID                          : 3
Format                      : AC-3
Format/Info                 : Audio Coding 3
Format settings, Endianness : Big
Codec ID                    : A_AC3
Duration                    : 1 h 59 min
Bit rate mode               : Constant
Bit rate                    : 448 kb/s
Channel(s)                  : 6 channels
Channel positions           : Front: L C R, Side: L R, LFE
Sampling rate               : 48.0 kHz
Frame rate                  : 31.250 FPS (1536 spf)
Bit depth                   : 16 bits
Compression mode            : Lossy
Stream size                 : 383 MiB (9%)
Title                       : English Audio
Language                    : English
Service kind                : Complete Main
Default                     : No
Forced                      : No

Text
ID                          : 4
Format                      : UTF-8
Codec ID                    : S_TEXT/UTF8
Codec ID/Info               : UTF-8 Plain Text
Duration                    : 1 h 59 min
Bit rate                    : 47 b/s
Count of elements           : 1243
Stream size                 : 41.3 KiB (0%)
Title                       : Subtitulos Español
Language                    : Spanish
Default                     : No
Forced                      : No

Menu
00:00:00.000                : en:00:00:00.000
13:10:59.168                : en:13:10:59.168
13:16:37.590                : en:13:16:37.590
13:23:25.163                : en:13:23:25.163
13:29:53.051                : en:13:29:53.051
13:33:30.768                : en:13:33:30.768
13:37:58.578                : en:13:37:58.578
13:47:19.012                : en:13:47:19.012
13:53:56.368                : en:13:53:56.368
13:58:12.415                : en:13:58:12.415
14:02:23.666                : en:14:02:23.666
14:07:50.201                : en:14:07:50.201
00:56:37.132                : en:00:56:37.132
14:16:48.822                : en:14:16:48.822
14:26:59.349                : en:14:26:59.349
14:32:52.535                : en:14:32:52.535
14:39:41.318                : en:14:39:41.318
14:46:29.559                : en:14:46:29.559
14:54:58.526                : en:14:54:58.526
14:58:52.969                : en:14:58:52.969




















Repo Men Unrated (Sin Censura) 720p
descargar peliculas - descargar programas
115 Puntos Score: 8.8/10
Visitas: 2776 Favoritos: 10
Ver los usuarios que votaron...
30 Comentarios Repo Men Unrated (Sin Censura) 720p
Excelente aporte y excelente película, muchas gracias amigo.  
Esto parece que será un festín de morbosidad.
Gracias, la buscaba en unrated !!
@eltiopi Asi es    aca tienen para comparar la version con censura y sin censura (unrated)
http://www.movie-censorship.com/report.php?ID=801339
no la conocia, buena!
@Leopulga Yo tampoco jaja la vi el año pasado, pero hace poco me entere que exitia una version sin censura, asi que la busque y encontre. sldos  
Me adhiero a los amigos que no sabían que hubiese una versión sin censura. Sorpresa! Ya la estoy descargando. Gracias mil!  
no toma los links =(
@WorldWarZ que tal la peli ? la recomiendas ?
@raquino te tomaron los links ?
el link 8 se pegua mucho!!! me puedes ayudar?
Veamos que tal la movie... gracias por compartir
@songotenxs ahi puse aparte los links, para descargar de forma individual.  
@cestradau9 Proba otro gestor, a mi me pasa eso con jdownloader, xeso siempre tengo a mano megadownloader y mipony.
@WorldWarZ te re contra pasaste !!! los tomó altiro. Es la primera vez que me pasa. Yo uso TotalID y jamas he tenido un solo problema. Excelente aporte amigo !!!!
WorldWarZ Gracias.... por por individual.
wena amigo..gracias  
@chalo1983 De nada compa, que la disfrutes  
Gracias por el post descargando saludos desde Venezuela
@fuegodel que la dsifrutes pana.  
Está en categoría series  
@Espinal Gracias, ahi lo corregí.
Para dejar un comentario Registrate! o.. eres ya usuario? Accede!
Facebook Identi