libardomm
"I read a book one day and my whole life was changed. — Orhan Pamuk"

Better Call Saul S03E06 720p HDTV x264-AVS[902 Mb]

Better Call Saul 720p HDTV x264-AVS[902 Mb][Subtitulado Español]

General

Format                         : Matroska
Format version                 : Version 4 / Version 2
File size                      : 903 MiB
Duration                       : 47 min 11 s
Overall bit rate               : 2 675 kb/s
Encoded date                   : UTC 2017-05-16 02:02:30
Writing application            : FastLE v3.0.0 - AVS
Writing library                : libx264 + libebml + libmatroska + libfastrar

Video
ID                             : 1
Format                         : AVC
Format/Info                    : Advanced Video Codec
Format profile                 : [email protected]
Format settings, CABAC         : Yes
Format settings, ReFrames      : 5 frames
Codec ID                       : V_MPEG4/ISO/AVC
Duration                       : 47 min 11 s
Bit rate                       : 2 238 kb/s
Width                          : 1 280 pixels
Height                         : 720 pixels
Display aspect ratio           : 16:9
Frame rate mode                : Constant
Frame rate                     : 23.976 (24000/1001) FPS
Color space                    : YUV
Chroma subsampling             : 4:2:0
Bit depth                      : 8 bits
Scan type                      : Progressive
Bits/(Pixel*Frame)             : 0.101
Stream size                    : 755 MiB (84%)
Writing library                : x264 core 148 r2762 90a61ec
Encoding settings              : cabac=1 / ref=5 / deblock=1:0:0 / analyse=0x3:0x113 / me=hex / subme=8 / psy=1 / psy_rd=1.00:0.00 / mixed_ref=1 / me_range=16 / chroma_me=1 / trellis=2 / 8x8dct=1 / cqm=0 / deadzone=21,11 / fast_pskip=1 / chroma_qp_offset=-2 / threads=22 / lookahead_threads=3 / sliced_threads=0 / nr=0 / decimate=1 / interlaced=0 / bluray_compat=0 / constrained_intra=0 / bframes=3 / b_pyramid=2 / b_adapt=1 / b_bias=0 / direct=3 / weightb=1 / open_gop=0 / weightp=2 / keyint=250 / keyint_min=23 / scenecut=40 / intra_refresh=0 / rc_lookahead=50 / rc=crf / mbtree=1 / crf=18.0 / qcomp=0.60 / qpmin=0 / qpmax=69 / qpstep=4 / ip_ratio=1.40 / aq=1:1.00
Default                        : Yes
Forced                         : No
Color range                    : Limited
Matrix coefficients            : BT.709

Audio
ID                             : 2
Format                         : AC-3
Format/Info                    : Audio Coding 3
Mode extension                 : CM (complete main)
Format settings, Endianness    : Big
Codec ID                       : A_AC3
Duration                       : 47 min 11 s
Bit rate mode                  : Constant
Bit rate                       : 384 kb/s
Channel(s)                     : 6 channels
Channel positions              : Front: L C R, Side: L R, LFE
Sampling rate                  : 48.0 kHz
Frame rate                     : 31.250 FPS (1536 spf)
Bit depth                      : 16 bits
Compression mode               : Lossy
Stream size                    : 130 MiB (14%)
Default                        : Yes
Forced                         : No






Subtítulos perfectamente sincronizados para esta version los consiguen aca:
descargar peliculas - descargar programas
10 Puntos Score: 10/10
Visitas: 561 Favoritos: 0
Ver los usuarios que votaron...
2 Comentarios Better Call Saul S03E06 720p HDTV x264-AVS[902 Mb]
Hola amigo veo que ya posteaste el capitulo, sabes revisé los subtitulos que recomiendas y son españoletas esos de "joder" "Tio" "coño" bueno en lo que me di cuenta solo vi "Tio" Jejeje Yo todavia no tengo listo el Capitulo estoy sincronizando prescisamente los subs Saludos
@freemantin Jajajaja. Tienes razon, pero es lo que hay por ahora.  Yo al menos no sufro por eso porque veo con los subtitulos en ingles  
Para dejar un comentario Registrate! o.. eres ya usuario? Accede!
Facebook Identi