Supergirl S02E21



SIPNOSIS

Supergirl es un serie de acción y aventuras basado en el personaje de DC Comics Kara Zor-El (Melissa Benoist), la prima de Superman, quien después de 12 años escondiendo sus poderes al mundo decide aceptar sus habilidades para convertirse en una superheroína.Supergirl es un serie de acción y aventuras basado en el personaje de DC Comics Kara Zor-El (Melissa Benoist), la prima de Superman, quien después de 12 años escondiendo sus poderes al mundo decide aceptar sus habilidades para convertirse en una superheroína

Info Multimedia:
     Complete name : Supergirl 2x21 - Resist.mkv
     Format : Matroska
     Format version : Version 4 / Version 2
     File size : 298 MiB
     Duration : 42 min 08 s
     Overall bit rate : 930 kb/s
  Video #1
     ID : 1
     Format : AVC
     Format/Info : Advanced Video Codec
     Format profile : High@L3.1
     Format settings, CABAC : Yes
     Format settings, ReFrames : 5 frames
     Codec ID : V_MPEG4/ISO/AVC
     Duration : 41 min 45 s
     Bit rate : 805 kb/s
     Width : 720 pixels
     Height : 404 pixels
     Display aspect ratio : 16:9
     Frame rate mode : Constant
     Frame rate : 23.976 (24000/1001) FPS
     Color space : YUV
     Chroma subsampling : 4:2:0
     Bit depth : 8 bits
     Scan type : Progressive
     Bits/(Pixel*Frame) : 0.115
     Stream size : 243 MiB (87%)
     Writing library : x264 core 148 r2744
     Language : English
     Default : Yes
     Forced : No
     Color range : Limited
     Matrix coefficients : BT.709
  Audio #2
     ID : 2
     Format : AAC
     Format/Info : Advanced Audio Codec
     Format profile : LC
     Codec ID : A_AAC
     Duration : 41 min 45 s
     Bit rate : 122 kb/s
     Channel(s) : 2 channels
     Channel positions : Front: L R
     Sampling rate : 48.0 kHz
     Frame rate : 46.875 FPS (1024 spf)
     Compression mode : Lossy
     Delay relative to video : 20 ms
     Stream size : 36.9 MiB (13%)
     Default : Yes
     Forced : No


TRAILER


CAPTURAS

ENLACES DE DESCARGA



[/size][/color][/i]

sin pass



peliculas - programas
20 Puntos Score: 6.7/10
Visitas: 846 Favoritos: 0
Ver los usuarios que votaron...
7 Comentarios Supergirl S02E21
Gracias por compartir el capitulo de la serie! Saludos!
Muchas gracias  por tu aporte.
Gracias amigo!
muchas gracias, sigue asi porfavor  
Para dejar un comentario Registrate! o.. eres ya usuario? Accede!
Facebook Identi