Leopulga
"Ripeos AVC y HEVC solo para coleccionistas."

Estreno-Exclusivo|Get Out (2017) 1080p Placebo




Hola amigos de Identi.li regreso a postear en esta gran comunidad, nada más ni nada menos que peliculas en la máxima calidad posible imitando al Blu-ray Original.

Esto se consigue mediante una Configurción (CFG) de ripeo exigente llamada Placebo y con un CRF20 que es lo que alcanza a distinguir el ojo humano y dejando unos rips al peso menor posible con calidad me animaria a decir casi como el Blu-ray.

Postearé peliculas raras o joyas por así decirlo que no se encuentran en buena calidad en la Web, se aceptan peticiones pero esto no quiere decir que haga todas, sino las que me parezcan que lo merecen, ya que esta CFG de ripeo tarda un total de 20/50 o más horas en ripear una película y el tiempo es oro uno bien dijo por ahí, sin más vamos con la película del título.

Importante

SOMOS UN GRUPO DE ENCODERS, EN ESTE CASO LES TRAIGO GET OUT (2017) EN CALIDAD PLACEBO CRF20 RIPEADA POR UNO DEL GRUPO @DIEGOVERA, DEJEN SUS AGRADECIMIENTOS HACIA ÉL.


Get Out (2017) 1080p Sub (Eng)




Sinopsis

Get Out (2017)

Un joven afroamericano visita a la familia de su novia blanca, un matrimonio adinerado. Para Chris (Daniel Kaluuya) y su novia Rose (Allison Williams) ha llegado el momento de conocer a los futuros suegros, por lo que ella le invita a pasar un fin de semana en el campo con sus padres, Missy (Catherine Keener) y Dean (Bradley Whitford). Al principio, Chris piensa que el comportamiento "demasiado" complaciente de los padres se debe a su nerviosismo por la relación interracial de su hija, pero a medida que pasan las horas, una serie de descubrimientos cada vez más inquietantes le llevan a descubrir una verdad inimaginable.


Ficha Técnica

Fuente: BD50 (USA)
Ripeo: Placebo CRF20
Tiempo de Ripeo: 4 horas
Audios: Inglés DTS (BD)
Subtítulos: Si (SRT/PGS-Español)
IMDB: 7.9


Mediainfo

Get Out (3,14GB)

General
Unique ID                   : 243155881690618011227371886566528214011 (0xB6EE1E8F0B5CEEDD8A8AE5DEDF3363FB)
Complete name               : Get.Out.2017.1080p.BluRay.x264.DTS-Vera.mkv
Format                      : Matroska
Format version              : Version 4 / Version 2
File size                   : 3.15 GiB
Duration                    : 1 h 44 min
Overall bit rate            : 4 326 kb/s
Encoded date                : UTC 2017-05-15 15:43:07
Writing application         : mkvmerge v11.0.0 ('Alive') 64bit
Writing library             : libebml v1.3.4 + libmatroska v1.4.5

Video
ID                          : 1
Format                      : AVC
Format/Info                 : Advanced Video Codec
Format profile              : High@L4.1
Format settings, CABAC      : Yes
Format settings, ReFrames   : 4 frames
Codec ID                    : V_MPEG4/ISO/AVC
Duration                    : 1 h 44 min
Bit rate                    : 2 806 kb/s
Width                       : 1 920 pixels
Height                      : 1 080 pixels
Display aspect ratio        : 16:9
Frame rate mode             : Constant
Frame rate                  : 23.976 (24000/1001) FPS
Color space                 : YUV
Chroma subsampling          : 4:2:0
Bit depth                   : 8 bits
Scan type                   : Progressive
Bits/(Pixel*Frame)          : 0.056
Stream size                 : 2.04 GiB (65%)
Title                       : Fuente Encodeo: BD50 - Vera
Writing library             : x264 core 148 r2744 b97ae06
Encoding settings           : cabac=1 / ref=4 / deblock=1:0:0 / analyse=0x3:0x133 / me=tesa / subme=10 / psy=1 / psy_rd=1.00:0.00 / mixed_ref=1 / me_range=24 / chroma_me=1 / trellis=2 / 8x8dct=1 / cqm=0 / deadzone=21,11 / fast_pskip=1 / chroma_qp_offset=-2 / threads=12 / lookahead_threads=2 / sliced_threads=0 / nr=0 / decimate=1 / interlaced=0 / bluray_compat=0 / constrained_intra=0 / bframes=8 / b_pyramid=2 / b_adapt=2 / b_bias=0 / direct=3 / weightb=1 / open_gop=0 / weightp=2 / keyint=240 / keyint_min=23 / scenecut=40 / intra_refresh=0 / rc_lookahead=60 / rc=crf / mbtree=1 / crf=20.0 / qcomp=0.60 / qpmin=0 / qpmax=69 / qpstep=4 / vbv_maxrate=62500 / vbv_bufsize=78125 / crf_max=0.0 / nal_hrd=none / filler=0 / ip_ratio=1.40 / aq=1:1.00
Default                     : Yes
Forced                      : No

Audio
ID                          : 2
Format                      : DTS
Format/Info                 : Digital Theater Systems
Mode                        : 16
Format settings, Endianness : Big
Codec ID                    : A_DTS
Duration                    : 1 h 44 min
Bit rate mode               : Constant
Bit rate                    : 1 509 kb/s
Channel(s)                  : 6 channels
Channel positions           : Front: L C R, Side: L R, LFE
Sampling rate               : 48.0 kHz
Frame rate                  : 93.750 FPS (512 spf)
Bit depth                   : 24 bits
Compression mode            : Lossy
Stream size                 : 1.10 GiB (35%)
Title                       : Audio Inglés DTS 5.1 @1509Kbps - Vera
Language                    : English
Default                     : Yes
Forced                      : No

Text #1
ID                          : 3
Format                      : UTF-8
Codec ID                    : S_TEXT/UTF8
Codec ID/Info               : UTF-8 Plain Text
Duration                    : 1 h 38 min
Bit rate                    : 46 b/s
Count of elements           : 1203
Stream size                 : 33.3 KiB (0%)
Title                       : Subtítulos Español Latino (SRT) - Vera
Language                    : Spanish
Default                     : Yes
Forced                      : No

Text #2
ID                          : 4
Format                      : PGS
Muxing mode                 : zlib
Codec ID                    : S_HDMV/PGS
Codec ID/Info               : Picture based subtitle format used on BDs/HD-DVDs
Duration                    : 1 h 43 min
Bit rate                    : 8 719 b/s
Count of elements           : 2409
Stream size                 : 6.43 MiB (0%)
Title                       : Subtítulos Español Latino (PGS) - Vera
Language                    : Spanish
Default                     : No
Forced                      : No

Menu
00:00:00.000                : en:Chapter 1
00:04:52.834                : en:Chapter 2
00:10:13.530                : en:Chapter 3
00:14:02.258                : en:Chapter 4
00:19:07.480                : en:Chapter 5
00:21:49.433                : en:Chapter 6
00:26:07.357                : en:Chapter 7
00:30:51.016                : en:Chapter 8
00:37:19.487                : en:Chapter 9
00:42:16.868                : en:Chapter 10
00:48:03.172                : en:Chapter 11
00:54:13.584                : en:Chapter 12
00:57:38.288                : en:Chapter 13
01:03:33.810                : en:Chapter 14
01:10:48.911                : en:Chapter 15
01:15:36.365                : en:Chapter 16
01:22:02.543                : en:Chapter 17
01:26:13.418                : en:Chapter 18
01:32:24.414                : en:Chapter 19
01:40:22.391                : en:Chapter 20



Imágenes
















Descarga

Get Out (2017)

Cita: Mostrar

Contraseña

NO TIENE

Agradecimientos

Quiero agradecerle al user @DIEGOVERA que hizo los ripeos y compartió los enlaces para que los postee.

Nota: Cualquier problema o link caído haganmelo saber que resubo las películas, saludos.
peliculas - programas
143 Puntos Score: 8.9/10
Visitas: 2841 Favoritos: 2
Ver los usuarios que votaron...
18 Comentarios Estreno-Exclusivo|Get Out (2017) 1080p Placebo
Este no es el que subio papelillo?
Gracias gallina, te sigo y te dejo mis +10, una pregunta, los subt ya estan pegados?, un abrazo.  
Cita MLPF: Mostrar
q la disfrutes!

Cita WorldWarZ: Mostrar
esta es mas liviana y se ve mejor  


Cita gastongas: Mostrar
hola leproso! jaja emm con que te refieres a pegados! y gracias x los puntos y comentar!
Hola amigo, gracias por esta calidad, una consulta, el audio latino? saludos.
Cita hiric2011: Mostrar
de nada q la disfrutes! El audio latino q salio es de ¡tunes, solo usamos audiso latnos estrictamente de bluray o dvd, algunas excepciones d epelis viejas cm the thing donde use un hdtv pero con 2 canales reales (x ahi son truchos) salu2!
Gracias Master por tu exelente trabajo y tambien muchas gracias por compartirlas.Podrias subir la trilogoa The Hobby
Gracias amigo por tu calidad de trabajo,te dejo 10+,el archivo pesa,pero vale la pena .saludos
Cita mafegu: Mostrar
veremos si el amigo diego se las da de ripear, yo x el momento ando retirado provisoriamente   jajaja q disfrutes la movie
Cita Hect65: Mostrar
jajaj y eso q es de las mas livianitas! todo para dieguito, saludos q la disfrutes!
Interesante aporte
muy buenoooooooooooooo +10
Gracias por la película
Cita gol300: Mostrar

Cita RMETAL: Mostrar

Cita _Atlas_: Mostrar
q la disfruten!!
@Leopulga Adelante amigo,como dicen ustedes en Argentina ''Padelante''y dejar a los locos que se auto - enojen,@Leopulga sos un Grande .
Cita Hect65: Mostrar
gracias bro, si mejor dejare q hable.. gracias x el apoyo
como decimos en México en un tiro se ve, yo ya vi los ripeos que sube @Leopulga y son buenisimos por
porque no compartes algo de los tuyo @Bibiloni9 y lo sometemos a votación y se dejen de niñerias y mariconadas
Este post esta cerrado y no se permiten comentarios.
Para dejar un comentario Registrate! o.. eres ya usuario? Accede!
Facebook Identi