libardomm
"I read a book one day and my whole life was changed. — Orhan Pamuk"

Better Call Saul S03E05 WEB DL 720p[ 1.5 Gb]

Better Call Saul S03E05 WEB DL 720p [ 1.5 Gb][Subtitulado Español]

General
Unique ID                      : 185730210989787135613501897051177840013 (0x8BBA5665E4873200B995594C6D196D8D)
Complete name                  : C:UsersUsuarioDownloadsBetter Call Saul S03E05 720p WEB-DL H264-FUM[ettv]Better.Call.Saul.S03E05.720p.WEB-DL.H264-FUM[ettv].mkv
Format                         : Matroska
Format version                 : Version 4 / Version 2
File size                      : 1.54 GiB
Duration                       : 49 min 19 s
Overall bit rate               : 4 471 kb/s
Encoded date                   : UTC 2017-05-09 07:10:06
Writing application            : mkvmerge v6.5.0 ('Isn't she lovely') built on Oct 20 2013 12:50:05
Writing library                : libebml v1.3.0 + libmatroska v1.4.1

Video
ID                             : 1
Format                         : AVC
Format/Info                    : Advanced Video Codec
Format profile                 : [email protected]
Format settings, CABAC         : No
Format settings, ReFrames      : 2 frames
Codec ID                       : V_MPEG4/ISO/AVC
Duration                       : 49 min 19 s
Bit rate                       : 3 998 kb/s
Width                          : 1 280 pixels
Height                         : 718 pixels
Display aspect ratio           : 16:9
Frame rate mode                : Constant
Frame rate                     : 23.976 FPS
Color space                    : YUV
Chroma subsampling             : 4:2:0
Bit depth                      : 8 bits
Scan type                      : Progressive
Bits/(Pixel*Frame)             : 0.181
Stream size                    : 1.38 GiB (89%)
Language                       : English
Default                        : Yes
Forced                         : No
Color range                    : Limited
Color primaries                : BT.709
Transfer characteristics       : BT.709
Matrix coefficients            : BT.709

Audio
ID                             : 2
Format                         : AC-3
Format/Info                    : Audio Coding 3
Mode extension                 : CM (complete main)
Format settings, Endianness    : Big
Codec ID                       : A_AC3
Duration                       : 49 min 19 s
Bit rate mode                  : Constant
Bit rate                       : 384 kb/s
Channel(s)                     : 6 channels
Channel positions              : Front: L C R, Side: L R, LFE
Sampling rate                  : 48.0 kHz
Frame rate                     : 31.250 FPS (1536 spf)
Bit depth                      : 16 bits
Compression mode               : Lossy
Stream size                    : 135 MiB (9%)
Language                       : English
Default                        : Yes
Forced                         : No

Text
ID                             : 3
Format                         : UTF-8
Codec ID                       : S_TEXT/UTF8
Codec ID/Info                  : UTF-8 Plain Text
Default                        : No
Forced                         : No




Nota: Agradezco los subtitulos a freemantin
descargar peliculas - descargar programas
15 Puntos Score: 7.5/10
Visitas: 400 Favoritos: 0
Ver los usuarios que votaron...
5 Comentarios Better Call Saul S03E05 WEB DL 720p[ 1.5 Gb]
Hola Amigo se agradece la mencion ........... disculpa la pregunta cuales subtitulos te sirvieron los SRT o los SUB IDX ademas .........  porque no la posteaste DUAL Jejeje Saludos  
@freemantin Ambos archivos. Porque si dejo uno de los dos me tira error el reproductor de video, ya sea vlc, mpc o splash pro.
No lo pongo dual porque aun estoy aprendiendo a sincronizar jejejeje.
Muchas gracias por pasarte
Gracias Libardomm  
@romemo Ya voy a subir el 6to
Vamos por el sexto capitulo de esta gran serie!!!
Para dejar un comentario Registrate! o.. eres ya usuario? Accede!
Facebook Identi