Leopulga
"Ripeos AVC y HEVC solo para coleccionistas."

Exclusivo|RE The Final Chapter (2017) 1080p V-Slow

Aclaro algo: mientras menor sea el Crf, mejor calidad!!!

Introducción

Hola amigos de Identi.li regreso a postear en esta gran comunidad, nada más ni nada menos que peliculas en la máxima calidad posible imitando al Blu-ray Original.

Esto se consigue mediante una Config. (Cfg) de ripeo exigente llamada Placebo o Very Slow y con un crf20 que es lo que alcanza a distinguir el ojo humano y dejando unos rips al peso menor posible con calidad me animaria a decir casi como el Bluray.

Importante

SOMOS UN GRUPO DE ENCODERS, EN ESTE CASO LES TRAIGO RESIDENT EVIL THE FINAL CHAPTER (2017) EN CALIDAD X264 VerySlow CRF20 RIPEADA POR UNA DEL GRUPO @THEWOMAN00, DEJEN SUS AGRADECIMIENTOS HACIA ELLA.

Resident Evil The Final Chapter (2017) 1080p Dual (Lat/Ing)



Sinopsis

La humanidad está agonizando tras la traición sufrida por Alice a manos de Wesker. Alice deberá regresar a donde la comenzó la pesadilla -Raccoon City-, ya que allí la Corporación Umbrella está reuniendo fuerzas antes de un último ataque a los últimos supervivientes del apocalipsis. En una carrera contra el tiempo, Alice tendrá que unir fuerzas con viejos amigos y con un inesperado aliado en una batalla contra hordas de zombis y nuevos monstruos mutantes. Será la aventura más difícil de Alice para salvar a la humanidad, que está al borde de la extinción.

Ficha Técnica

Fuente: BD50 (Usa).
Ripeo: Placebo Crf18.5.
Tiempo de Ripeo: 10 horas.
Audio: Latino y Inglés.
Subtítulos: Si (Srt-Spanish) y (Pgs-Spanish)
IMDB: 5.6


Mediainfo

General
Unique ID                   : 196689306190562151700242004033387281655 (0x93F8FB820F7B380C969217610412BCF7)
Complete name               : C:UsersLeonardoDownloadsCompressedResident Evil The Final Chapter 2016 1080p BluRay x264 DTS Dual Latino-THEWOMAN00.mkv
Format                      : Matroska
Format version              : Version 4 / Version 2
File size                   : 4.85 GiB
Duration                    : 1 h 46 min
Overall bit rate            : 6 523 kb/s
Encoded date                : UTC 2017-04-30 21:52:50
Writing application         : mkvmerge v9.6.0 ('Slave To Your Mind') 64bit
Writing library             : libebml v1.3.4 + libmatroska v1.4.5

Video
ID                          : 1
Format                      : AVC
Format/Info                 : Advanced Video Codec
Format profile              : [email protected]
Format settings, CABAC      : Yes
Format settings, ReFrames   : 4 frames
Codec ID                    : V_MPEG4/ISO/AVC
Duration                    : 1 h 46 min
Bit rate                    : 4 359 kb/s
Width                       : 1 920 pixels
Height                      : 1 080 pixels
Display aspect ratio        : 16:9
Frame rate mode             : Constant
Frame rate                  : 23.976 (24000/1001) FPS
Color space                 : YUV
Chroma subsampling          : 4:2:0
Bit depth                   : 8 bits
Scan type                   : Progressive
Bits/(Pixel*Frame)          : 0.088
Stream size                 : 3.24 GiB (67%)
Writing library             : x264 core 148 r2744 b97ae06
Encoding settings           : cabac=1 / ref=4 / deblock=1:0:0 / analyse=0x3:0x133 / me=tesa / subme=10 / psy=1 / psy_rd=1.00:0.00 / mixed_ref=1 / me_range=24 / chroma_me=1 / trellis=2 / 8x8dct=1 / cqm=0 / deadzone=21,11 / fast_pskip=0 / chroma_qp_offset=-2 / threads=12 / lookahead_threads=3 / sliced_threads=0 / nr=0 / decimate=1 / interlaced=0 / bluray_compat=0 / constrained_intra=0 / bframes=16 / b_pyramid=2 / b_adapt=2 / b_bias=0 / direct=3 / weightb=1 / open_gop=0 / weightp=2 / keyint=240 / keyint_min=23 / scenecut=40 / intra_refresh=0 / rc_lookahead=60 / rc=crf / mbtree=1 / crf=18.5 / qcomp=0.60 / qpmin=0 / qpmax=69 / qpstep=4 / vbv_maxrate=62500 / vbv_bufsize=78125 / crf_max=0.0 / nal_hrd=none / filler=0 / ip_ratio=1.40 / aq=1:1.00
Default                     : Yes
Forced                      : No

Audio #1
ID                          : 2
Format                      : DTS
Format/Info                 : Digital Theater Systems
Mode                        : 16
Format settings, Endianness : Big
Codec ID                    : A_DTS
Duration                    : 1 h 46 min
Bit rate mode               : Constant
Bit rate                    : 1 509 kb/s
Channel(s)                  : 6 channels
Channel positions           : Front: L C R, Side: L R, LFE
Sampling rate               : 48.0 kHz
Frame rate                  : 93.750 FPS (512 spf)
Bit depth                   : 24 bits
Compression mode            : Lossy
Stream size                 : 1.12 GiB (23%)
Language                    : English
Default                     : Yes
Forced                      : No

Audio #2
ID                          : 3
Format                      : AC-3
Format/Info                 : Audio Coding 3
Format settings, Endianness : Big
Codec ID                    : A_AC3
Duration                    : 1 h 46 min
Bit rate mode               : Constant
Bit rate                    : 640 kb/s
Channel(s)                  : 6 channels
Channel positions           : Front: L C R, Side: L R, LFE
Sampling rate               : 48.0 kHz
Frame rate                  : 31.250 FPS (1536 spf)
Bit depth                   : 16 bits
Compression mode            : Lossy
Stream size                 : 488 MiB (10%)
Language                    : Spanish
Service kind                : Complete Main
Default                     : No
Forced                      : No

Text #1
ID                          : 4
Format                      : UTF-8
Codec ID                    : S_TEXT/UTF8
Codec ID/Info               : UTF-8 Plain Text
Duration                    : 1 h 45 min
Bit rate                    : 31 b/s
Count of elements           : 750
Stream size                 : 24.1 KiB (0%)
Language                    : Spanish
Default                     : Yes
Forced                      : No

Text #2
ID                          : 5
Format                      : UTF-8
Codec ID                    : S_TEXT/UTF8
Codec ID/Info               : UTF-8 Plain Text
Duration                    : 1 h 27 min
Bit rate                    : 0 b/s
Count of elements           : 19
Stream size                 : 490 Bytes (0%)
Default                     : No
Forced                      : No

Text #3
ID                          : 6
Format                      : PGS
Muxing mode                 : zlib
Codec ID                    : S_HDMV/PGS
Codec ID/Info               : Picture based subtitle format used on BDs/HD-DVDs
Duration                    : 1 h 46 min
Bit rate                    : 12.4 kb/s
Count of elements           : 1506
Stream size                 : 9.45 MiB (0%)
Language                    : Spanish
Default                     : No
Forced                      : No

Menu
00:00:00.000                : en:00:00:00.000
00:05:39.673                : en:00:05:39.673
00:11:18.177                : en:00:11:18.177
00:17:00.102                : en:00:17:00.102
00:22:36.146                : en:00:22:36.146
00:27:21.932                : en:00:27:21.932
00:33:35.889                : en:00:33:35.889
00:40:43.816                : en:00:40:43.816
00:46:29.328                : en:00:46:29.328
00:53:11.980                : en:00:53:11.980
01:03:11.871                : en:01:03:11.871
01:10:41.070                : en:01:10:41.070
01:15:30.776                : en:01:15:30.776
01:22:51.008                : en:01:22:51.008
01:28:26.092                : en:01:28:26.092
01:35:00.653                : en:01:35:00.653

Imágenes



Descarga

Resident Evil The Final Chapter (2017) 1080p Dual (Lat/Eng).



Cita: Mostrar

Contraseña

TheWoman00


Nota: agradezcan a thewoman00!!!.
descargar peliculas - descargar programas
127 Puntos Score: 9.1/10
Visitas: 3380 Favoritos: 4
Ver los usuarios que votaron...
20 Comentarios Exclusivo|RE The Final Chapter (2017) 1080p V-Slow
gracias amigo 10+ saludos
Buen aporte  
@Leopulga Leito amigo muchas gracias por subirla, sos un capo!!! Apenas tenga puntos te los doy todos   y gracias también a @TheWoman y a los demás uploaders por traernos tremenda calidad!!!!
@Leopulga psd: amigo por cierto arriba dice duología the raid? a lo mejor eso es de otro post o me equivoco?
Cita Hect65: Mostrar

Cita zerox17: Mostrar

Cita Espinal: Mostrar

Cita cesarbbcc: Mostrar

Cita darkmastr2: Mostrar

Cita darkmastr2: Mostrar

Cita WorldWarZ: Mostrar
Muchas gracias a todos x sus comentarios y puntos!! mas tarde una nueva saludos
@thewoman00,por mi parte mil gracias excelente aporte a disfrutar de esta excelente calidad..abrazos
Cita tecpas48: Mostrar
yo hago q tu comentario le llegue, saludos!
Eeeeesa vamos River lpm! XD y gracias por otra gran peli y a @THEWOMAN00 tambien  
EXCELENTE APORTE AMIGO GRACIAS A TI Y CLARO A THEWOMAN00 AHI TE DEJO LOS PUNTOS QUE ME QUEDAN
SALUDOS (Y)
Cita cheko_ssr: Mostrar
gracias!!
Cita Protoss01: Mostrar
aguante la banda!
+5 muy buenooooooooo gracias!!!!!!!
Cita RMETAL: Mostrar
gracias x pasarte bro !
ayuda porfa, como lo descargo?
Para dejar un comentario Registrate! o.. eres ya usuario? Accede!
Facebook Identi