Leopulga
"Ripeos AVC y HEVC solo para coleccionistas."

+40GB|TLOTR Trilogy EXT (2001-2003) 1080p VerySlow

Hola amigos de Identi.li regreso a postear en esta gran comunidad, nada más ni nada menos que peliculas en la máxima calidad posible imitando al Blu-ray Original.

Esto se consigue mediante una Config. (Cfg) de ripeo exigente llamada Placebo o VerySlow y con un crf20 que es lo que alcanza a distinguir el ojo humano y dejando unos rips al peso menor posible con calidad me animaria a decir casi como el Bluray.

Postearé peliculas raras o joyas por asi decirlo que no se encuentran en buena calidad en la Web, se aceptan peticiones pero esto no quiere decir que haga todas, sino las que me parezcan que lo merecen, ya que esta Config. de ripeo tarda un total de 20/50 o más horas en ripear una pelicula y el tiempo es oro uno bien dijo por ahi, sin más vamos con la pelicula del título.

Importante

SOMOS UN GRUPO DE ENCODERS, EN ESTE CASO LES TRAIGO LA TRILOGÍA THE LORD OF THE RINGS EXTENDED EDITION (2001-2003) EN CALIDAD VERYSLOW CRF20 RIPEADA POR UNO DEL GRUPO @DIEGOVERA, DEJEN SUS AGRADECIMIENTOS HACIA ÉL.


The Lord of the Rings (2001-2003) The Motion Picture Trilogy EXTENDED EDITION 1080p Sub (Eng)




Sinopsis

The Lord of the Rings: The Fellowship of the Ring (2001) EXTENDED

En la Tierra Media, el Señor Oscuro Saurón ordenó a los Elfos que forjaran los Grandes Anillos de Poder. Tres para los reyes Elfos, siete para los Señores Enanos, y nueve para los Hombres Mortales. Pero Saurón también forjó, en secreto, el Anillo Único, que tiene el poder de esclavizar toda la Tierra Media. Con la ayuda de sus amigos y de valientes aliados, el joven hobbit Frodo emprende un peligroso viaje con la misión de destruir el Anillo Único. Pero el malvado Sauron ordena la persecución del grupo, compuesto por Frodo y sus leales amigos hobbits, un mago, un hombre, un elfo y un enano. La misión es casi suicida pero necesaria, pues si Sauron con su ejército de orcos lograra recuperar el Anillo, sería el final de la Tierra Media.

The Lord of the Rings: The Two Towers (2002) EXTENDED

Tras la disolución de la Compañía del Anillo, Frodo y su fiel amigo Sam se dirigen hacia Mordor para destruir el Anillo Único y acabar con el poder de Sauron. Mientras, y tras la dura batalla contra los orcos donde cayó Boromir, el hombre Aragorn, el elfo Legolas y el enano Gimli intentan rescatar a los medianos Merry y Pipin, secuestrados por los orcos de Mordor. Por su parte, Saurón y el traidor Sarumán continúan con sus planes en Mordor, a la espera de la guerra contra las razas libres de la Tierra Media.

The Lord of the Rings: The Return of the King (2003) EXTENDED

Las fuerzas de Saruman han sido destruidas, y su fortaleza sitiada. Ha llegado el momento de decidir el destino de la Tierra Media, y, por primera vez, parece que hay una pequeña esperanza. El interés del señor oscuro Sauron se centra ahora en Gondor, el último reducto de los hombres, cuyo trono será reclamado por Aragorn. Sauron se dispone a lanzar un ataque decisivo contra Gondor. Mientras tanto, Frodo y Sam continuan su camino hacia Mordor, con la esperanza de llegar al Monte del Destino.


Ficha Técnica

Fuente: BD50 (USA) - TODAS
Ripeo: Placebo CRF20  - TODAS
Tiempo de Ripeo: 12 a 17 horas
Audios: Inglés DTS (BD) - TODAS
Subtítulos: Si (SRT/PGS-Español) - TODAS
IMDB: 8.8 - 8.7 - 8.9


Mediainfo

TLOTR: The Fellowship of the Ring EXTENDED (10GB)

General
Unique ID                   : 223113636991481735588932557633620861800 (0xA7DA1F9A4EDBB77B8985F28B549CE368)
Complete name               : E:The.Lord.of.the.Rings.The.Fellowship.of.the.Ring.2001.EXTENDED.1080p.BluRay.x264.DTS-Vera.mkv
Format                      : Matroska
Format version              : Version 4 / Version 2
File size                   : 10.1 GiB
Duration                    : 3 h 48 min
Overall bit rate            : 6 306 kb/s
Encoded date                : UTC 2017-05-02 17:53:43
Writing application         : mkvmerge v11.0.0 ('Alive') 64bit
Writing library             : libebml v1.3.4 + libmatroska v1.4.5

Video
ID                          : 1
Format                      : AVC
Format/Info                 : Advanced Video Codec
Format profile              : [email protected]
Format settings, CABAC      : Yes
Format settings, ReFrames   : 4 frames
Codec ID                    : V_MPEG4/ISO/AVC
Duration                    : 3 h 48 min
Bit rate                    : 4 787 kb/s
Width                       : 1 920 pixels
Height                      : 1 080 pixels
Display aspect ratio        : 16:9
Frame rate mode             : Constant
Frame rate                  : 23.976 (24000/1001) FPS
Color space                 : YUV
Chroma subsampling          : 4:2:0
Bit depth                   : 8 bits
Scan type                   : Progressive
Bits/(Pixel*Frame)          : 0.096
Stream size                 : 7.63 GiB (76%)
Title                       : Fuente Encodeo: BD50 - Vera
Writing library             : x264 core 148 r2744 b97ae06
Encoding settings           : cabac=1 / ref=4 / deblock=1:0:0 / analyse=0x3:0x133 / me=tesa / subme=10 / psy=1 / psy_rd=1.00:0.00 / mixed_ref=1 / me_range=24 / chroma_me=1 / trellis=2 / 8x8dct=1 / cqm=0 / deadzone=21,11 / fast_pskip=1 / chroma_qp_offset=-2 / threads=12 / lookahead_threads=2 / sliced_threads=0 / nr=0 / decimate=1 / interlaced=0 / bluray_compat=0 / constrained_intra=0 / bframes=8 / b_pyramid=2 / b_adapt=2 / b_bias=0 / direct=3 / weightb=1 / open_gop=0 / weightp=2 / keyint=240 / keyint_min=23 / scenecut=40 / intra_refresh=0 / rc_lookahead=60 / rc=crf / mbtree=1 / crf=20.0 / qcomp=0.60 / qpmin=0 / qpmax=69 / qpstep=4 / vbv_maxrate=62500 / vbv_bufsize=78125 / crf_max=0.0 / nal_hrd=none / filler=0 / ip_ratio=1.40 / aq=1:1.00
Default                     : Yes
Forced                      : No

Audio
ID                          : 2
Format                      : DTS
Format/Info                 : Digital Theater Systems
Format profile              : ES Discrete / Core
Mode                        : 16
Format settings, Endianness : Big
Codec ID                    : A_DTS
Duration                    : 3 h 48 min
Bit rate mode               : Constant
Bit rate                    : 1 509 kb/s
Channel(s)                  : 7 channels / 6 channels
Channel positions           : Front: L C R, Side: L R, Back: C, LFE / Front: L C R, Side: L R, LFE
Sampling rate               : 48.0 kHz
Frame rate                  : 93.750 FPS (512 spf)
Bit depth                   : 24 bits
Compression mode            : Lossy
Stream size                 : 2.41 GiB (24%)
Title                       : Audio Inglés DTS 6.1 @1509Kbps - Vera
Language                    : English
Default                     : Yes
Forced                      : No

Text #1
ID                          : 3
Format                      : UTF-8
Codec ID                    : S_TEXT/UTF8
Codec ID/Info               : UTF-8 Plain Text
Duration                    : 3 h 19 min
Bit rate                    : 40 b/s
Count of elements           : 1734
Stream size                 : 58.8 KiB (0%)
Title                       : Subtítulos Español Latino (SRT) - Vera
Language                    : Spanish
Default                     : Yes
Forced                      : No

Text #2
ID                          : 4
Format                      : PGS
Muxing mode                 : zlib
Codec ID                    : S_HDMV/PGS
Codec ID/Info               : Picture based subtitle format used on BDs/HD-DVDs
Duration                    : 3 h 47 min
Bit rate                    : 8 329 b/s
Count of elements           : 3432
Stream size                 : 13.6 MiB (0%)
Title                       : Subtítulos Español Latino (PGS) - Vera
Language                    : Spanish
Default                     : No
Forced                      : No

Menu
00:00:00.000                : en:Prologue: One Ring to Rule Them All...
00:07:36.790                : en:Concerning Hobbits
00:10:35.552                : en:The Shire
00:15:39.856                : en:Very Old Friends
00:19:58.489                : en:A Long-Expected Party
00:25:32.614                : en:Farewell Dear Bilbo
00:29:57.379                : en:Keep It Secret, Keep It Safe
00:32:10.679                : en:The Account of Isildur
00:34:51.798                : en:At the Green Dragon
00:36:18.176                : en:The Shadow of the Past
00:45:04.160                : en:The Passing of the Elves
00:46:44.301                : en:Saruman the White
00:51:21.412                : en:A Short Cut to Mushrooms
00:55:12.434                : en:Bucklebury Ferry
00:57:30.072                : en:At the Sign of the Prancing Pony
01:03:31.516                : en:The Nazgul
01:07:16.115                : en:The Midgewater Marshes
01:08:53.588                : en:The Spoiling of Isengard
01:10:35.940                : en:A Knife in the Dark
01:15:15.386                : en:The Caverns of Isengard
01:17:46.620                : en:Flight to the Ford
01:24:11.546                : en:Rivendell
01:26:12.501                : en:Many Meetings
01:29:41.585                : en:The Fate of the Ring
01:33:14.672                : en:The Sword That Was Broken
01:35:54.082                : en:The Evenstar
01:37:32.972                : en:The Council of Elrond
01:45:43.420                : en:Gilraen's Memorial
01:46:59.246                : en:Bilbo's Gifts
01:48:42.641                : en:The Departure of the Fellowship
01:50:00.051                : en:The Ring Goes South
01:53:05.862                : en:The Pass of Caradhras
01:57:52.148                : en:Moria
02:04:17.533                : en:A Journey in the Dark
02:10:47.881                : en:Balin's Tomb
02:20:12.612                : en:The Bridge of Khazad-dum
02:29:54.068                : en:Lothlorien
02:33:06.719                : en:Caras Galadhon
02:40:23.739                : en:The Mirror of Galadriel
02:46:03.745                : en:The Fighting Uruk-hai
02:47:45.096                : en:Farewell to Lorien
02:53:07.627                : en:The Great River
02:57:59.877                : en:Parth Galen
03:04:27.639                : en:The Breaking of the Fellowship
03:11:43.575                : en:The Departure of Boromir
03:14:25.904                : en:The Road Goes Ever On...
03:20:44.073                : en:Credits
03:28:24.575                : en:Official Fan Club Credits


TLOTR: The Two Towers EXTENDED (12,9GB)

General
Unique ID                   : 180820534829734484551637482780311662678 (0x8808C4AC9D01D8BFAE592274A3A3B056)
Complete name               : E:The.Lord.of.the.Rings.The.Two.Towers.2002.EXTENDED.1080p.BluRay.x264.DTS-Vera.mkv
Format                      : Matroska
Format version              : Version 4 / Version 2
File size                   : 13.0 GiB
Duration                    : 3 h 55 min
Overall bit rate            : 7 878 kb/s
Encoded date                : UTC 2017-05-03 18:33:35
Writing application         : mkvmerge v11.0.0 ('Alive') 64bit
Writing library             : libebml v1.3.4 + libmatroska v1.4.5

Video
ID                          : 1
Format                      : AVC
Format/Info                 : Advanced Video Codec
Format profile              : [email protected]
Format settings, CABAC      : Yes
Format settings, ReFrames   : 4 frames
Codec ID                    : V_MPEG4/ISO/AVC
Duration                    : 3 h 55 min
Bit rate                    : 6 358 kb/s
Width                       : 1 920 pixels
Height                      : 1 080 pixels
Display aspect ratio        : 16:9
Frame rate mode             : Constant
Frame rate                  : 23.976 (23976/1000) FPS
Original frame rate         : 23.976 (24000/1001) FPS
Color space                 : YUV
Chroma subsampling          : 4:2:0
Bit depth                   : 8 bits
Scan type                   : Progressive
Bits/(Pixel*Frame)          : 0.128
Stream size                 : 10.5 GiB (81%)
Title                       : Fuente Encodeo: BD50 - Vera
Writing library             : x264 core 148 r2744 b97ae06
Encoding settings           : cabac=1 / ref=4 / deblock=1:0:0 / analyse=0x3:0x133 / me=tesa / subme=10 / psy=1 / psy_rd=1.00:0.00 / mixed_ref=1 / me_range=24 / chroma_me=1 / trellis=2 / 8x8dct=1 / cqm=0 / deadzone=21,11 / fast_pskip=1 / chroma_qp_offset=-2 / threads=12 / lookahead_threads=2 / sliced_threads=0 / nr=0 / decimate=1 / interlaced=0 / bluray_compat=0 / constrained_intra=0 / bframes=8 / b_pyramid=2 / b_adapt=2 / b_bias=0 / direct=3 / weightb=1 / open_gop=0 / weightp=2 / keyint=240 / keyint_min=23 / scenecut=40 / intra_refresh=0 / rc_lookahead=60 / rc=crf / mbtree=1 / crf=20.0 / qcomp=0.60 / qpmin=0 / qpmax=69 / qpstep=4 / vbv_maxrate=62500 / vbv_bufsize=78125 / crf_max=0.0 / nal_hrd=none / filler=0 / ip_ratio=1.40 / aq=1:1.00
Default                     : Yes
Forced                      : No

Audio
ID                          : 2
Format                      : DTS
Format/Info                 : Digital Theater Systems
Format profile              : ES Discrete / Core
Mode                        : 16
Format settings, Endianness : Big
Codec ID                    : A_DTS
Duration                    : 3 h 55 min
Bit rate mode               : Constant
Bit rate                    : 1 509 kb/s
Channel(s)                  : 7 channels / 6 channels
Channel positions           : Front: L C R, Side: L R, Back: C, LFE / Front: L C R, Side: L R, LFE
Sampling rate               : 48.0 kHz
Frame rate                  : 93.750 FPS (512 spf)
Bit depth                   : 24 bits
Compression mode            : Lossy
Stream size                 : 2.48 GiB (19%)
Title                       : Audio Inglés DTS 6.1 @1509Kbps - Vera
Language                    : English
Default                     : Yes
Forced                      : No

Text #1
ID                          : 3
Format                      : UTF-8
Codec ID                    : S_TEXT/UTF8
Codec ID/Info               : UTF-8 Plain Text
Duration                    : 3 h 33 min
Bit rate                    : 38 b/s
Count of elements           : 2028
Stream size                 : 60.4 KiB (0%)
Title                       : Subtítulos Español Latino (SRT) - Vera
Language                    : Spanish
Default                     : Yes
Forced                      : No

Text #2
ID                          : 4
Format                      : PGS
Muxing mode                 : zlib
Codec ID                    : S_HDMV/PGS
Codec ID/Info               : Picture based subtitle format used on BDs/HD-DVDs
Duration                    : 3 h 54 min
Bit rate                    : 8 793 b/s
Count of elements           : 4066
Stream size                 : 14.8 MiB (0%)
Title                       : Subtítulos Español Latino (PGS) - Vera
Language                    : Spanish
Default                     : No
Forced                      : No

Menu
00:00:00.000                : en:The Foundations of Stone
00:04:08.748                : en:Elven Rope
00:06:10.829                : en:Taming of the Smeagols
00:14:44.967                : en:The Uruk-Hai
00:17:06.609                : en:The Three Hunters
00:19:17.948                : en:The Burning of the Westfold
00:23:07.094                : en:Massacre at the Fords of Isen
00:23:58.312                : en:The Banishment of Eomer
00:27:09.044                : en:On the Trail of the Uruk-Hai
00:28:03.181                : en:Night Camp at Fangorn
00:31:38.230                : en:The Riders of Rohan
00:35:45.518                : en:The Fate of Merry and Pippin
00:38:17.879                : en:Treebeard
00:41:47.797                : en:The Passage of the Marshes
00:50:49.755                : en:The White Rider
00:58:19.413                : en:The Song of the Entwives
01:00:40.178                : en:The Heir of Numenor
01:02:48.306                : en:The Black Gate is Closed
01:08:05.999                : en:Ent Draft
01:12:41.732                : en:The King of the Golden Hall
01:24:17.344                : en:The Funeral of Theodred
01:25:41.636                : en:Simbelmyne on the Burial Mounds
01:27:34.332                : en:The King's Decision
01:30:45.523                : en:Brego
01:32:30.587                : en:The Ring of Barahir
01:34:31.040                : en:A Daughter of Kings
01:35:57.043                : en:Exodus From Edoras
01:37:02.316                : en:The Forests of Ithilien
01:38:43.960                : en:Gollum and Smeagol
01:41:14.819                : en:Of Herbs and Stewed Rabbit
01:46:39.562                : en:Dwarf Women
01:47:22.355                : en:One of the Dunedain
01:49:52.213                : en:The Evenstar
01:54:58.769                : en:The Wolves of Isengard
02:01:36.958                : en:Helm's Deep
02:04:17.077                : en:Isengard Unleashed
02:06:53.525                : en:The Grace of the Valar
02:08:31.081                : en:Arwen's Fate
02:12:13.845                : en:The Story Foreseen From Lorien
02:14:39.824                : en:The Window on the West
02:18:29.428                : en:Sons of the Steward
02:23:08.999                : en:The Forbidden Pool
02:30:30.690                : en:Aragon's Return
02:36:03.940                : en:Entmoot
02:37:23.812                : en:The Glittering Caves
02:40:32.083                : en:"Where is the Horse and the Rider?"
02:42:16.813                : en:"Don't Be Hasty, Master Meriadoc!"
02:43:07.488                : en:The Host of the Eldar
02:46:41.577                : en:The Batter of the Hornburg
02:53:03.959                : en:Old Entish
02:54:41.014                : en:The Breach of the Deeping Wall
02:58:06.136                : en:The Entmoot Decides
02:59:51.283                : en:The Retreat to the Hornburg
03:05:53.770                : en:Master Peregrin's Plan
03:07:18.855                : en:Osgiliath
03:07:53.598                : en:The Last March of the Ents
03:10:23.122                : en:The Nazgul Attack
03:12:55.107                : en:Forth Eorlingas
03:17:33.594                : en:The Flooding of Isengard
03:19:59.948                : en:The Tales That Really Mattered...
03:24:45.233                : en:Fangorn Comes to Helm's Deep
03:25:37.786                : en:The Final Tally
03:26:18.326                : en:Flotsam and Jetsam
03:28:22.117                : en:Farewell to Faramir
03:30:51.975                : en:"The Battle for Middle-Earth is About to Begin"
03:32:31.658                : en:Gollum's Plan
03:34:55.802                : en:End Credits
03:43:52.087                : en:Fan Club Credits


TLOTR: The Return of the King EXTENDED (17,2GB)

General
Unique ID                   : 232782406461424136196458721103952763470 (0xAF2042BE1748AF32AB25CEE241A45A4E)
Complete name               : E:The.Lord.of.the.Rings.The.Return.of.the.King.2003.EXTENDED.1080p.BluRay.x264.DTS-Vera.mkv
Format                      : Matroska
Format version              : Version 4 / Version 2
File size                   : 17.2 GiB
Duration                    : 4 h 23 min
Overall bit rate            : 9 353 kb/s
Encoded date                : UTC 2017-05-05 16:41:05
Writing application         : mkvmerge v11.0.0 ('Alive') 64bit
Writing library             : libebml v1.3.4 + libmatroska v1.4.5

Video
ID                          : 1
Format                      : AVC
Format/Info                 : Advanced Video Codec
Format profile              : [email protected]
Format settings, CABAC      : Yes
Format settings, ReFrames   : 4 frames
Codec ID                    : V_MPEG4/ISO/AVC
Duration                    : 4 h 23 min
Bit rate                    : 7 835 kb/s
Width                       : 1 920 pixels
Height                      : 1 080 pixels
Display aspect ratio        : 16:9
Frame rate mode             : Constant
Frame rate                  : 23.976 (23976/1000) FPS
Original frame rate         : 23.976 (24000/1001) FPS
Color space                 : YUV
Chroma subsampling          : 4:2:0
Bit depth                   : 8 bits
Scan type                   : Progressive
Bits/(Pixel*Frame)          : 0.158
Stream size                 : 14.4 GiB (84%)
Title                       : Fuente Encodeo: BD50 - Vera
Writing library             : x264 core 148 r2744 b97ae06
Encoding settings           : cabac=1 / ref=4 / deblock=1:0:0 / analyse=0x3:0x133 / me=tesa / subme=10 / psy=1 / psy_rd=1.00:0.00 / mixed_ref=1 / me_range=24 / chroma_me=1 / trellis=2 / 8x8dct=1 / cqm=0 / deadzone=21,11 / fast_pskip=1 / chroma_qp_offset=-2 / threads=12 / lookahead_threads=2 / sliced_threads=0 / nr=0 / decimate=1 / interlaced=0 / bluray_compat=0 / constrained_intra=0 / bframes=8 / b_pyramid=2 / b_adapt=2 / b_bias=0 / direct=3 / weightb=1 / open_gop=0 / weightp=2 / keyint=240 / keyint_min=23 / scenecut=40 / intra_refresh=0 / rc_lookahead=60 / rc=crf / mbtree=1 / crf=20.0 / qcomp=0.60 / qpmin=0 / qpmax=69 / qpstep=4 / vbv_maxrate=62500 / vbv_bufsize=78125 / crf_max=0.0 / nal_hrd=none / filler=0 / ip_ratio=1.40 / aq=1:1.00
Default                     : Yes
Forced                      : No

Audio
ID                          : 2
Format                      : DTS
Format/Info                 : Digital Theater Systems
Format profile              : ES Discrete / Core
Mode                        : 16
Format settings, Endianness : Big
Codec ID                    : A_DTS
Duration                    : 4 h 23 min
Bit rate mode               : Constant
Bit rate                    : 1 509 kb/s
Channel(s)                  : 7 channels / 6 channels
Channel positions           : Front: L C R, Side: L R, Back: C, LFE / Front: L C R, Side: L R, LFE
Sampling rate               : 48.0 kHz
Frame rate                  : 93.750 FPS (512 spf)
Bit depth                   : 24 bits
Compression mode            : Lossy
Stream size                 : 2.78 GiB (16%)
Title                       : Audio Inglés DTS 6.1 @1509Kbps - Vera
Language                    : English
Default                     : Yes
Forced                      : No

Text #1
ID                          : 3
Format                      : UTF-8
Codec ID                    : S_TEXT/UTF8
Codec ID/Info               : UTF-8 Plain Text
Duration                    : 3 h 59 min
Bit rate                    : 29 b/s
Count of elements           : 1773
Stream size                 : 51.3 KiB (0%)
Title                       : Subtítulos Español Latino (SRT) - Vera
Language                    : Spanish
Default                     : Yes
Forced                      : No

Text #2
ID                          : 4
Format                      : PGS
Muxing mode                 : zlib
Codec ID                    : S_HDMV/PGS
Codec ID/Info               : Picture based subtitle format used on BDs/HD-DVDs
Duration                    : 4 h 22 min
Bit rate                    : 6 665 b/s
Count of elements           : 3548
Stream size                 : 12.5 MiB (0%)
Title                       : Subtítulos Español Latino (PGS) - Vera
Language                    : Spanish
Default                     : No
Forced                      : No

Menu
00:00:00.000                : en:The Finding of the Ring
00:06:24.342                : en:Journey to the Cross-Roads
00:09:21.394                : en:The Road to Isengard
00:11:21.848                : en:The Voice of Saruman
00:18:23.311                : en:Return to Edoras
00:23:05.009                : en:Gollum's Villany
00:27:03.330                : en:Eowyn's Dream
00:29:00.697                : en:The Palantir
00:37:06.433                : en:Arwen's Vision
00:40:02.567                : en:The Reforging of Narsil
00:42:03.229                : en:Minas Tirith
00:47:52.203                : en:The Decline of Gondor
00:50:18.641                : en:Cross-Roads of the Fallen King
00:52:18.761                : en:"The Deep Breath Before the Plunge"
00:55:35.332                : en:Minas Morgul
00:59:36.406                : en:Sam's Warning
01:00:23.703                : en:Pippin's Task
01:00:50.605                : en:Osgiliath Invaded
01:04:30.075                : en:The Lighting of the Beacons
01:07:16.032                : en:Theoden's Decision
01:10:35.314                : en:The Fall of Osgiliath
01:14:54.824                : en:The Wizard's Pupil
01:17:21.971                : en:The Stairs of Cirith Ungol
01:19:21.799                : en:"Courage is the Best Defense"
01:20:01.088                : en:Peregrin of the Tower Guard
01:21:26.799                : en:Allegiance to Denethor
01:23:48.941                : en:The Parting of Sam and Frodo
01:29:08.593                : en:The Sacrifice of Faramir
01:33:57.590                : en:Marshalling at Dunharrow
01:38:08.049                : en:Anduril - Flame of the West
01:42:49.705                : en:Aragorn Takes the Paths of the Dead
01:45:34.245                : en:"No More Despair"
01:46:57.453                : en:Dwimorberg - the Haunted Mountain
01:49:24.433                : en:The Muster of Rohan
01:51:09.997                : en:The Paths of the Dead
01:58:39.696                : en:The Siege of Gondor
02:07:41.322                : en:The Corsairs of Umbar
02:08:43.801                : en:Shelob's Lair
02:17:51.473                : en:Merry's Simple Courage
02:19:41.792                : en:Grond - The Hammer of the Underworld
02:20:18.161                : en:The Tomb of the Stewards
02:21:51.797                : en:Breaking the Gate of Gondor
02:22:58.613                : en:The Choices of Master Samwise
02:29:00.350                : en:Denethor's Madness
02:30:05.665                : en:The Witch King's Hour
02:32:30.685                : en:The Ride of the Rohirrim
02:36:45.106                : en:The Pyre of Denethor
02:38:52.191                : en:The Battle of Pelennor Fields
02:43:47.736                : en:"A Far Green Country"
02:45:18.160                : en:The Nazgul and His Prey
02:47:04.099                : en:The Black Ships
02:47:56.526                : en:Shieldmaiden of Rohan
02:48:40.779                : en:Victory at Minas Tirith
02:51:16.476                : en:The Passing of Theoden
02:53:19.182                : en:Oaths Fulfilled
02:54:26.124                : en:The Houses of Healing
02:56:42.135                : en:Pippin Looks After Merry
02:57:34.187                : en:The Tower of Cirith Ungol
03:04:30.102                : en:The Last Debate
03:06:12.455                : en:Aragorn Masters the Palantir
03:07:41.544                : en:The Captain and the White Lady
03:08:31.677                : en:In the Company of Orcs
03:12:13.065                : en:The Land of Shadow
03:16:24.775                : en:The Mouth of Sauron
03:19:40.679                : en:The Black Gate Opens
03:23:14.476                : en:"I Can't Carry It for You... But I Can Carry You"
03:25:27.275                : en:The Last Move
03:26:30.380                : en:Mount Doom
03:28:26.454                : en:"The Eagles Are Coming!"
03:29:00.780                : en:The Crack of Doom
03:34:39.034                : en:Sauron Defeated
03:36:52.418                : en:The End of All Things
03:40:21.418                : en:The Fellowship Reunited
03:42:44.519                : en:The Return of the King
03:47:37.562                : en:Homeward Bound
03:52:19.469                : en:The Grey Havens
04:01:38.069                : en:End Credits
04:12:45.485                : en:Fan Club Credits





Imágenes


























Descarga

The Fellowship of the Ring (2001) EXTENDED

Cita: Mostrar

The Two Towers (2002) EXTENDED

Cita: Mostrar

The Return of the King (2003) EXTENDED

Cita: Mostrar

Contraseña

NO TIENE

Agradecimientos

Quiero agradecerle al user @DIEGOVERA que hizo los ripeos y compartió los enlaces para que los postee.

Nota: Cualquier problema o link caido hagánmelo saber que resubo las peliculas, saludos.




peliculas - programas
387 Puntos Score: 9/10
Visitas: 6830 Favoritos: 24
Ver los usuarios que votaron...
79 Comentarios +40GB|TLOTR Trilogy EXT (2001-2003) 1080p VerySlow
una pregunta que paso en el apartado mediainfo?
Cita MetaWacha: Mostrar
bug, solucionado
Gracias amigo por compartir saludos.
Cita MetaWacha: Mostrar
gracias x los puntos! saludos!
Cita Hect65: Mostrar
de nada q las disfrutes, saludos y gracias x puntuar!
excelente aporte bro
Cita black043: Mostrar
muchas gracias x pasarte y los puntos!!
Se agradece el esfuerzo.  

Salutes.
guauuuuuuuuuu impecable post!!!!!!!! +10 muy bueno ya los tengo (claro que no en placebo )
abrazo
Cita Espinal: Mostrar

Cita Varoncinn: Mostrar

Cita MLPF: Mostrar

Cita RMETAL: Mostrar
gracias a todos por pasarse a comentar y los puntos, espero las disfruten!
TREMENDO AMIGO   Gracias por subirla, buscaré los audios latinos y ya  
Excelente aporte amigo, ¡Muchas gracias! Sigue así  
Cita Daniel_07: Mostrar
y los subs no te olvides! jaja gracias x pasarte!
@Leopulga Cierto jaja, por nada amigo, gracias por tus aportes.  
Cita Daniel_07: Mostrar
gracias a ti x tomarte las molestias de pasarte en cada post!  
+10 también sube en hevc  
Genial, justo andaba buscandolas para volver a verlas pero no encontraba las versiones extended
Cita elviscoso: Mostrar

Cita WorldWarZ: Mostrar
disfrutenlas bros! gracias x comentar y puntos!
muchas gracias bro saludos  
Cita radamez69: Mostrar
de nada, disfrutalas!
Tremenda  calidad solo espero que a diego no le explote su pc XD...  y al Johnny no le pegue  un infarto
Cita maximoalfa: Mostrar
jajajajjaja o q le embarguen la casa x no poder pagar la luz!
Cita RonDamon33: Mostrar
tu q dices prox post?
gracias x los puntos!
Esta de moda El Señor de los Anillos y El Hobbit  
Cita Tortuga3: Mostrar
jajaja asi parece bro asi parece!!!
no hay latino?xd
Cita jean16: Mostrar
no señor en las extenddias no hay! jajaja no empanadas diria el viejo Papelillio!


Cita steampunk: Mostrar
gracias x pasarte y los puntos!
Cita cesarbbcc: Mostrar
q las disfrutes!
@ArsenaL_12  @_Atlas_ @BobMarley7  @nico_metal  @CYPicazo @jvpx @pablons gracias x tomarse la molestia de dejar puntos!
Jajajaja la primer captura. I see what you did there... XD Muchisimas gracias che! Alta trilogia. Ya la tengo en Bluray, pero como siempre puntines papa!
Lamentablemente solo puedo dar 5 puntos, te mereces muchos más. Que gran aporte...Muchas gracias por tu trabajo
Cita Protoss01: Mostrar
jajajaj asi dicen q es excelente   jajaja

Cita jvpx: Mostrar
no pasa nada bro, lo mejo q puedes ahcer es dejarme tu comentario si te gusto el aporte! saludos y disfrutalas!
@zatarra806 gracias x los puntos!
Cita JohannID: Mostrar
disfrutalo!
gracias x los puntos! @vihu8
@Leopulga No la has visto che?
Cita Protoss01: Mostrar
nop, no son de mi gusto jajaj
@Leopulga Okas todo bien Bueno, para hoy sale post de Rata Blanca, estate atenti  
Cita Protoss01: Mostrar
dales bro!!
Enorme trabajo, gracias a vos!!!!
Cita vihu8: Mostrar
Se valorá el aporte amigo gracias
Cita Duliori_28: Mostrar
de nada, gracias x pasarte y los puntos!!
2 USD   , ¡EXCELENTE RIP!
Cita QU4GMIRE: Mostrar
me debes 6 son 3   jaa era hora.. baja y dime tal estan
Muchas Gracias
Grosso     GRACIAS !
Cita erwien: Mostrar
Gracias a vos!
Cita barella: Mostrar
Vos, maestro!
Como no le añadieron audio latino  
Cita depredad0r: Mostrar
xq no existe para las extendidas
No la podre descargar.

Excelente trabajo.
Cita mzalberto: Mostrar
gracias de todas maneras  
muy buenooooooo!! ya me baje la primera y esta impresionante! saludos!
Cita grone: Mostrar
q las disfrutes! gracias x pasarte a dejar tu comentario!
¡Muchas gracias!  
Cita Glow_: Mostrar
k las disfrutes
Excelente aporte, como opinión personal, al menos un bitrate de 10,000 hubiera merecido esta colección. Saludos!  
Muchas gracias por el aporte  
excelente aporte, espero que puedas subir la trilogia de el hobbit  
Gracias amigo  
Cita OutworK: Mostrar
hola bro creeme se ve mejor q un ripeo convencional de 10.000 de bitrate!

Cita Walterium: Mostrar
q la disfrutes!

Cita neodark: Mostrar
veremos veremos! q las disfrutes!

Cita buger: Mostrar
disfrutalas!
Gracias Master descargadas estos clasicos y guardadas en el disco duro junto con The Last of the Mohicans.Muchas Gracias
Cita mafegu: Mostrar
q las disfrutes bro! gracias x tu comentario
Muchas gracias por tomarte el tiempo de subir un tremendo lujo como éste!
Cita Chesterman: Mostrar
k la disfrutes bro!
Muchas gracias amigo por compartir estas verdaderas joyas y en tan alta calidad, no he visto estas versiones extendidas aun, así que lo disfrutare el doble. Saludos
una pregunta el audio solo biene en ingles????
Cita checomr: Mostrar
si no existe atino para versiones extendidas! saludos  
Capo, no funcionan los links!! Solucion please!!
Hola, ya no funcionan los links, los puedes resubir?, gracias
Para dejar un comentario Registrate! o.. eres ya usuario? Accede!
Facebook Identi