argentum
"Películas por pedido 1080p 5GB"
Oops.. Este post tiene los enlaces eliminados!

Identi revisa las denuncias de los usuarios en busca de enlaces eliminados que no dejan descargar los archivos, este mensaje te informa que este post que estas viendo tiene los enlaces eliminados.

Usa el Buscador

Por favor, te recomendamos que uses el buscador para encontrar más alternativas.

12 AÑOS DE ESCLAVITUD|2013|1080p|3.44Gb

  • Categoría: Reciclaje
  • Publicado hace más de 7 meses
12 AÑOS DE ESCLAVITUD|2013|1080p|3.44Gb

[/b][/size]








12 AÑOS DE ESCLAVITUD _ 2013

CALIDAD: 1920x800P
EXTENSIÓN: MKV
AUDIO: Español latino 5.1 | Inglés 5.1
TAMAÑO: 3.44GB
_____________________________________
registro de recuperación 5%
3 partes .rar de 1.00gb 1 parte .rar de 695mb
1 parte .REV (archivo de recuperación).
_____________________________________


















MEDIA INFO:

General
Unique ID                                : 220371207308695069574954236947099750638 (0xA5C9F36150A0A30FBD7C42A7E1C710EE)
Complete name                            : F:12 YEARS A SLAVE _ 12 AÑOS DE ESCLAVITUD _ 201312 YEARS A SLAVE _ 12 AÑOS DE ESCLAVITUD _ 2013.mkv
Format                                   : Matroska
Format version                           : Version 4 / Version 2
File size                                : 3.44 GiB
Duration                                 : 2h 14mn
Overall bit rate                         : 3 673 Kbps
Encoded date                             : UTC 2014-02-21 12:08:55
Writing application                      : mkvmerge v6.7.0 ('Back to the Ground') 64bit built on Jan  8 2014 15:10:52
Writing library                          : libebml v1.3.0 + libmatroska v1.4.1

Video
ID                                       : 1
Format                                   : AVC
Format/Info                              : Advanced Video Codec
Format profile                           : [email protected]
Format settings, CABAC                   : Yes
Format settings, ReFrames                : 4 frames
Codec ID                                 : V_MPEG4/ISO/AVC
Duration                                 : 2h 14mn
Bit rate                                 : 2 850 Kbps
Width                                    : 1 920 pixels
Height                                   : 800 pixels
Display aspect ratio                     : 2.40:1
Frame rate mode                          : Constant
Frame rate                               : 23.976 fps
Color space                              : YUV
Chroma subsampling                       : 4:2:0
Bit depth                                : 8 bits
Scan type                                : Progressive
Bits/(Pixel*Frame)                       : 0.077
Stream size                              : 2.59 GiB (75%)
Writing library                          : x264 core 130 r2273 b3065e6
Encoding settings                        : cabac=1 / ref=1 / deblock=1:0:0 / analyse=0x1:0x111 / me=hex / subme=2 / psy=1 / psy_rd=1.00:0.00 / mixed_ref=0 / me_range=16 / chroma_me=1 / trellis=0 / 8x8dct=0 / cqm=0 / deadzone=21,11 / fast_pskip=1 / chroma_qp_offset=0 / threads=6 / lookahead_threads=2 / sliced_threads=0 / nr=0 / decimate=1 / interlaced=0 / bluray_compat=0 / constrained_intra=0 / bframes=3 / b_pyramid=2 / b_adapt=1 / b_bias=0 / direct=1 / weightb=1 / open_gop=0 / weightp=1 / keyint=240 / keyint_min=24 / scenecut=40 / intra_refresh=0 / rc_lookahead=10 / rc=2pass / mbtree=1 / bitrate=2850 / ratetol=1.0 / qcomp=0.60 / qpmin=0 / qpmax=69 / qpstep=4 / cplxblur=20.0 / qblur=0.5 / vbv_maxrate=20000 / vbv_bufsize=25000 / nal_hrd=none / ip_ratio=1.40 / aq=1:1.00
Language                                 : English
Default                                  : Yes
Forced                                   : No
Color primaries                          : BT.709
Transfer characteristics                 : BT.709
Matrix coefficients                      : BT.709

Audio #1
ID                                       : 2
Format                                   : AC-3
Format/Info                              : Audio Coding 3
Mode extension                           : CM (complete main)
Format settings, Endianness              : Big
Codec ID                                 : A_AC3
Duration                                 : 2h 14mn
Bit rate mode                            : Constant
Bit rate                                 : 448 Kbps
Channel count                            : 6 channels
Channel positions                        : Front: L C R, Side: L R, LFE
Sampling rate                            : 48.0 KHz
Bit depth                                : 16 bits
Compression mode                         : Lossy
Stream size                              : 430 MiB (12%)
Title                                    : Español Latino
Language                                 : Latin
Default                                  : Yes
Forced                                   : No

Audio #2
ID                                       : 3
Format                                   : AC-3
Format/Info                              : Audio Coding 3
Mode extension                           : CM (complete main)
Format settings, Endianness              : Big
Codec ID                                 : A_AC3
Duration                                 : 2h 14mn
Bit rate mode                            : Constant
Bit rate                                 : 384 Kbps
Channel count                            : 6 channels
Channel positions                        : Front: L C R, Side: L R, LFE
Sampling rate                            : 48.0 KHz
Bit depth                                : 16 bits
Compression mode                         : Lossy
Stream size                              : 369 MiB (10%)
Title                                    : Ingles
Language                                 : English
Default                                  : No
Forced                                   : No

Text #1
ID                                       : 4
Format                                   : UTF-8
Codec ID                                 : S_TEXT/UTF8
Codec ID/Info                            : UTF-8 Plain Text
Title                                    : Español Latino
Language                                 : Latin
Default                                  : Yes
Forced                                   : No

Text #2
ID                                       : 5
Format                                   : UTF-8
Codec ID                                 : S_TEXT/UTF8
Codec ID/Info                            : UTF-8 Plain Text
Title                                    : Ingles
Language                                 : English
Default                                  : No
Forced                                   : No

Menu
00:00:00.000                             : en:Chapter 1
00:06:02.862                             : en:Chapter 2
00:10:13.530                             : en:Chapter 3
00:12:58.903                             : en:Chapter 4
00:16:24.650                             : en:Chapter 5
00:19:18.866                             : en:Chapter 6
00:25:01.750                             : en:Chapter 7
00:27:48.458                             : en:Chapter 8
00:32:07.968                             : en:Chapter 9
00:36:07.874                             : en:Chapter 10
00:39:39.127                             : en:Chapter 11
00:45:16.714                             : en:Chapter 12
00:47:36.145                             : en:Chapter 13
00:52:27.061                             : en:Chapter 14
00:54:34.188                             : en:Chapter 15
00:59:34.112                             : en:Chapter 16
01:01:47.829                             : en:Chapter 17
01:06:04.586                             : en:Chapter 18
01:09:55.691                             : en:Chapter 19
01:12:47.989                             : en:Chapter 20
01:15:27.690                             : en:Chapter 21
01:18:31.874                             : en:Chapter 22
01:21:08.572                             : en:Chapter 23
01:23:46.688                             : en:Chapter 24
01:26:25.972                             : en:Chapter 25
01:28:18.877                             : en:Chapter 26
01:31:22.519                             : en:Chapter 27
01:34:10.186                             : en:Chapter 28
01:38:14.013                             : en:Chapter 29
01:41:50.479                             : en:Chapter 30
01:45:18.896                             : en:Chapter 31
01:53:09.908                             : en:Chapter 32
01:54:46.505                             : en:Chapter 33
02:00:22.215                             : en:Chapter 34
02:04:07.398                             : en:Chapter 35
02:07:25.763                             : en:Chapter 36






MXHD
descargar peliculas - descargar programas
55 Puntos Score: 9.2/10
Visitas: 619 Favoritos: 3
Ver los usuarios que votaron...
7 Comentarios 12 AÑOS DE ESCLAVITUD|2013|1080p|3.44Gb
buen aporte luego paso con puntos, una pregunta el latino es intacto del bluray<? salu2  gracias
@Leopulga gracias camarada, no sabría decirte, publico el media info. si de algo sirve  
Cita argentum: Mostrar
perfecto parece q si lo es, pero del dvd gracias, luego paso!
Muchas gracias! Una peli para tenerla en esta calidad!
Para dejar un comentario Registrate! o.. eres ya usuario? Accede!
Facebook Identi