Leopulga
"Ripeos AVC y HEVC solo para coleccionistas."

Exclusivo|Sleepy Hollow (1999) 1080p Placebo Crf20

Introducción

Hola amigos de Identi.li regreso a postear en esta gran comunidad, nada más ni nada menos que peliculas en la máxima calidad posible imitando al Blu-ray Original.

Esto se consigue mediante una Config. (Cfg) de ripeo exigente llamada Placebo y con un crf20 que es lo que alcanza a distinguir el ojo humano y dejando unos rips al peso menor posible con calidad me animaria a decir casi como el Bluray.

Sleepy Hollow (1999) 1080p Dual (Lat/Eng)



Sinopsis

Norteamérica, finales del siglo XVIII. El condestable Ichabod Crane (Johnny Depp), un investigador de Nueva York que utiliza avanzados métodos de averiguación, es enviado al pequeño y remoto pueblo de Sleepy Hollow para descubrir qué hay de verdad en la leyenda de un jinete sin cabeza que aterroriza a los habitantes del lugar.

Ficha Técnica

Fuente: BD50 (JPN).
Ripeo: Placebo Crf19.5.
Tiempo de Ripeo: 20 horas.
Audio: Inglés/Latino.
Subtítulos: Si (Srt-Spanish)
IMDB: 7.4


Mediainfo

General
Unique ID                   : 187929282336673470692462227643874241708 (0x8D61DCFC819C7211B124C1284B8D6CAC)
Complete name               : C:UsersLeonardoDownloadsVideoMIS RIPEOSSleepy Hollow (1999)Sleepy Hollow (1999) Blu-ray 1080p Latino-Inglés [AVC].mkv
Format                      : Matroska
Format version              : Version 4 / Version 2
File size                   : 6.66 GiB
Duration                    : 1 h 45 min
Overall bit rate            : 9 052 kb/s
Encoded date                : UTC 2017-05-03 02:46:45
Writing application         : mkvmerge v9.6.0 ('Slave To Your Mind') 32bit
Writing library             : libebml v1.3.4 + libmatroska v1.4.5

Video
ID                          : 1
Format                      : AVC
Format/Info                 : Advanced Video Codec
Format profile              : [email protected]
Format settings, CABAC      : Yes
Format settings, ReFrames   : 4 frames
Codec ID                    : V_MPEG4/ISO/AVC
Duration                    : 1 h 45 min
Bit rate                    : 6 367 kb/s
Width                       : 1 920 pixels
Height                      : 1 080 pixels
Display aspect ratio        : 16:9
Frame rate mode             : Constant
Frame rate                  : 23.976 (24000/1001) FPS
Color space                 : YUV
Chroma subsampling          : 4:2:0
Bit depth                   : 8 bits
Scan type                   : Progressive
Bits/(Pixel*Frame)          : 0.128
Stream size                 : 4.68 GiB (70%)
Title                       : Sleepy Hollow (1999)
Writing library             : x264 core 148 r2744 b97ae06
Encoding settings           : cabac=1 / ref=4 / deblock=1:0:0 / analyse=0x3:0x133 / me=tesa / subme=11 / psy=1 / psy_rd=1.00:0.00 / mixed_ref=1 / me_range=24 / chroma_me=1 / trellis=2 / 8x8dct=1 / cqm=0 / deadzone=21,11 / fast_pskip=0 / chroma_qp_offset=-2 / threads=12 / lookahead_threads=3 / sliced_threads=0 / nr=0 / decimate=1 / interlaced=0 / bluray_compat=0 / constrained_intra=0 / bframes=16 / b_pyramid=2 / b_adapt=2 / b_bias=0 / direct=3 / weightb=1 / open_gop=0 / weightp=2 / keyint=240 / keyint_min=23 / scenecut=40 / intra_refresh=0 / rc_lookahead=60 / rc=crf / mbtree=1 / crf=19.5 / qcomp=0.60 / qpmin=0 / qpmax=69 / qpstep=4 / vbv_maxrate=62500 / vbv_bufsize=78125 / crf_max=0.0 / nal_hrd=none / filler=0 / ip_ratio=1.40 / aq=1:1.00
Default                     : Yes
Forced                      : No

Audio #1
ID                          : 2
Format                      : DTS
Format/Info                 : Digital Theater Systems
Format profile              : HRA / Core
Mode                        : 16
Format settings, Endianness : Big
Codec ID                    : A_DTS
Duration                    : 1 h 45 min
Bit rate mode               : Constant
Bit rate                    : 2 046 kb/s / 1 509 kb/s
Channel(s)                  : 6 channels
Channel positions           : Front: L C R, Side: L R, LFE
Sampling rate               : 48.0 kHz
Frame rate                  : 93.750 FPS (512 spf)
Bit depth                   : 16 bits
Compression mode            : Lossy
Stream size                 : 1.50 GiB (23%)
Title                       : English
Language                    : English
Default                     : Yes
Forced                      : No

Audio #2
ID                          : 3
Format                      : AC-3
Format/Info                 : Audio Coding 3
Format settings, Endianness : Big
Codec ID                    : A_AC3
Duration                    : 1 h 45 min
Bit rate mode               : Constant
Bit rate                    : 640 kb/s
Channel(s)                  : 6 channels
Channel positions           : Front: L C R, Side: L R, LFE
Sampling rate               : 48.0 kHz
Frame rate                  : 31.250 FPS (1536 spf)
Bit depth                   : 16 bits
Compression mode            : Lossy
Delay relative to video     : 14 ms
Stream size                 : 482 MiB (7%)
Title                       : Spanish
Language                    : Spanish
Service kind                : Complete Main
Default                     : No
Forced                      : No

Text
ID                          : 4
Format                      : UTF-8
Codec ID                    : S_TEXT/UTF8
Codec ID/Info               : UTF-8 Plain Text
Duration                    : 1 h 38 min
Bit rate                    : 36 b/s
Count of elements           : 788
Stream size                 : 26.6 KiB (0%)
Title                       : Spanish Srt
Language                    : Spanish
Default                     : Yes
Forced                      : No

Menu
00:00:00.000                : en:The Fate of Peter Van Garrett
00:03:50.480                : en:Constable Crane
00:07:21.732                : en:Sleepy Hollow
00:13:40.569                : en:The Headless Horseman
00:19:18.866                : en:Masbath's Terrible Death
00:27:08.710                : en:Five Victims, Four Graves
00:29:48.661                : en:A Wakeful Night
00:36:41.991                : en:Magistrate Philipse
00:42:16.200                : en:The Western Woods
00:46:51.850                : en:Tree of the Dead
00:52:27.143                : en:The Killian Family
00:58:15.366                : en:"You Have Bewitched Me"
01:03:25.092                : en:The Secret Conspiracy
01:10:13.042                : en:An Angry Wound
01:14:50.319                : en:Murder Begets Murder
01:19:09.077                : en:Evil Eye
01:23:28.920                : en:The Archer
01:31:19.015                : en:A Head for a Head
01:38:35.367                : en:A New Century

Imágenes



Descarga

Sleep Hollow (1999) 1080p Dual (Lat/Eng).



Contraseña

LeonardoPulgaman


Nota: Es el mismo ripeo anterior pero con el audio latino incluido del BD25 de USA, saludos!
peliculas - programas
129 Puntos Score: 8.1/10
Visitas: 1741 Favoritos: 7
Ver los usuarios que votaron...
21 Comentarios Exclusivo|Sleepy Hollow (1999) 1080p Placebo Crf20
Genial 3xcelente aporte estaba esperando a que alguien se fijara en esta película; soy novato no puedo dejar puntos pero mis felicitaciones y agradecimientos amigo
Cita Jcarlosmm: Mostrar
con tu comentario y buena onda es mas q suficiente disfrutala bro!!
No  es de mi agrado la pelicula en si, pero me interesa el proceso q utilizaste y la calidad obtenida. Te sigo bro y continua asi  
Cita JohannID: Mostrar
gracias bro x valorar el esfuerzo bro! muchas gracias!
@alezxis7 gracias por los puntos!!
gracias baby lo mejor de lo mejor xd    
Cita dariokk: Mostrar
gracias bro!
@kronoscr gracias x los puntos!!
muy muy bueno amigo!!! saludos gran trabajo 20 hs de ripeo!!!!!!!!!!!!!!!!
Cita RMETAL: Mostrar
jajaja cambie cosas del post anterior, solo tuve a agregar el latino!
Cita Leopulga: Mostrar
el post original si te llevo ripear 20 hs salado!!!!!!!!
gracias x el audio latino!!!!!!
Cita RMETAL: Mostrar
jajaj ese si.. de nada saludos y ya sabes disfrutala!
Puro lujo de aportes contigo  
Gracias me llevo el audio.  
link caido amigo
Cita masamo: Mostrar
en un rato la resubo!
Cita masamo: Mostrar
resubida
Para dejar un comentario Registrate! o.. eres ya usuario? Accede!
Facebook Identi