Leopulga
"Ripeos AVC y HEVC solo para coleccionistas."

Exclusivo|Evil Dead (2013) 1080p Placebo CRF20

Introducción

Hola amigos de Identi.li regreso a postear en esta gran comunidad, nada más ni nada menos que peliculas en la máxima calidad posible imitando al Blu-ray Original.

Esto se consigue mediante una Config. (Cfg) de ripeo exigente llamada Placebo y con un crf20 que es lo que alcanza a distinguir el ojo humano y dejando unos rips al peso menor posible con calidad me animaria a decir casi como el Bluray.

Postearé peliculas raras o joyas por asi decirlo que no se encuentran en buena calidad en la Web, se aceptan peticiones pero esto no quiere decir que haga todas, sino las que me parezcan que lo merecen, ya que esta Config. de ripeo tarda un total de 20/50 o más horas en ripear una pelicula y el tiempo es oro uno bien dijo por ahi, sin más vamos con la pelicula del título.


Evil Dead (2013) 1080p (Lat/Ing)+Subtitulos.



Sinopsis

Cinco amigos se alojan en una cabaña de Tenessee para así poder ayudar a una de los jóvenes, que se encuentra en rehabilitación por drogas. Estar sin sus drogas convierte a la chica en una persona agresiva, lo que llevará a sus amigos a no darse cuenta de que en realidad esta poseída por demonios que fueron desatados al leer el Necromicon... Remake del clásico de Raimi.

Ficha Técnica

Fuente: BD50 (Usa).
Ripeo: Placebo Crf20.
Tiempo de Ripeo: 14 horas.
Audio: Latino 5.1 AC3-Inglés 5.1 DTS.
Subtítulos: Si (Srt-Spanish)(Pgs Spanish)(Forzados Spanish)
IMDB: 6.5

Mediainfo

General
Unique ID                   : 254784983618433254723257938277307444779 (0xBFADCD8D05F8BDBFA99D2924E40EEE2B)
Complete name               : C:UsersLeonardoDownloadsVideoMIS RIPEOSEvil Dead (2013)Evil Dead (2013) Blu-ray 1080p Latino-Ingles [AVC] Forzados.mkv
Format                      : Matroska
Format version              : Version 4 / Version 2
File size                   : 5.00 GiB
Duration                    : 1 h 31 min
Overall bit rate            : 7 836 kb/s
Encoded date                : UTC 2017-05-06 03:58:26
Writing application         : mkvmerge v9.6.0 ('Slave To Your Mind') 32bit
Writing library             : libebml v1.3.4 + libmatroska v1.4.5

Video
ID                          : 1
Format                      : AVC
Format/Info                 : Advanced Video Codec
Format profile              : [email protected]
Format settings, CABAC      : Yes
Format settings, ReFrames   : 4 frames
Codec ID                    : V_MPEG4/ISO/AVC
Duration                    : 1 h 31 min
Bit rate                    : 5 680 kb/s
Width                       : 1 920 pixels
Height                      : 1 080 pixels
Display aspect ratio        : 16:9
Frame rate mode             : Constant
Frame rate                  : 23.976 (24000/1001) FPS
Color space                 : YUV
Chroma subsampling          : 4:2:0
Bit depth                   : 8 bits
Scan type                   : Progressive
Bits/(Pixel*Frame)          : 0.114
Stream size                 : 3.62 GiB (72%)
Title                       : Evil Dead (2013)
Writing library             : x264 core 148 r2744 b97ae06
Encoding settings           : cabac=1 / ref=4 / deblock=1:0:0 / analyse=0x3:0x133 / me=tesa / subme=11 / psy=1 / psy_rd=1.00:0.00 / mixed_ref=1 / me_range=24 / chroma_me=1 / trellis=2 / 8x8dct=1 / cqm=0 / deadzone=21,11 / fast_pskip=0 / chroma_qp_offset=-2 / threads=12 / lookahead_threads=3 / sliced_threads=0 / nr=0 / decimate=1 / interlaced=0 / bluray_compat=0 / constrained_intra=0 / bframes=16 / b_pyramid=2 / b_adapt=2 / b_bias=0 / direct=3 / weightb=1 / open_gop=0 / weightp=2 / keyint=240 / keyint_min=23 / scenecut=40 / intra_refresh=0 / rc_lookahead=60 / rc=crf / mbtree=1 / crf=19.5 / qcomp=0.60 / qpmin=0 / qpmax=69 / qpstep=4 / vbv_maxrate=62500 / vbv_bufsize=78125 / crf_max=0.0 / nal_hrd=none / filler=0 / ip_ratio=1.40 / aq=1:1.00
Default                     : Yes
Forced                      : No

Audio #1
ID                          : 2
Format                      : DTS
Format/Info                 : Digital Theater Systems
Mode                        : 16
Format settings, Endianness : Big
Codec ID                    : A_DTS
Duration                    : 1 h 31 min
Bit rate mode               : Constant
Bit rate                    : 1 509 kb/s
Channel(s)                  : 6 channels
Channel positions           : Front: L C R, Side: L R, LFE
Sampling rate               : 48.0 kHz
Frame rate                  : 93.750 FPS (512 spf)
Bit depth                   : 24 bits
Compression mode            : Lossy
Stream size                 : 986 MiB (19%)
Title                       : English
Language                    : English
Default                     : Yes
Forced                      : No

Audio #2
ID                          : 3
Format                      : AC-3
Format/Info                 : Audio Coding 3
Format settings, Endianness : Big
Codec ID                    : A_AC3
Duration                    : 1 h 31 min
Bit rate mode               : Constant
Bit rate                    : 640 kb/s
Channel(s)                  : 6 channels
Channel positions           : Front: L C R, Side: L R, LFE
Sampling rate               : 48.0 kHz
Frame rate                  : 31.250 FPS (1536 spf)
Bit depth                   : 16 bits
Compression mode            : Lossy
Stream size                 : 418 MiB (8%)
Title                       : Spanish
Language                    : Spanish
Service kind                : Complete Main
Default                     : No
Forced                      : No

Text #1
ID                          : 4
Format                      : UTF-8
Codec ID                    : S_TEXT/UTF8
Codec ID/Info               : UTF-8 Plain Text
Duration                    : 1 h 29 min
Bit rate                    : 23 b/s
Count of elements           : 589
Stream size                 : 15.1 KiB (0%)
Title                       : Spanish Srt
Language                    : Spanish
Default                     : Yes
Forced                      : No

Text #2
ID                          : 5
Format                      : UTF-8
Codec ID                    : S_TEXT/UTF8
Codec ID/Info               : UTF-8 Plain Text
Duration                    : 1 h 22 min
Bit rate                    : 0 b/s
Count of elements           : 6
Stream size                 : 193 Bytes (0%)
Title:                      : Spanish
Lenguage                    : Spanish
Default                     : No
Forced                      : Yes

Text #3
ID                          : 6
Format                      : PGS
Muxing mode                 : zlib
Codec ID                    : S_HDMV/PGS
Codec ID/Info               : Picture based subtitle format used on BDs/HD-DVDs
Duration                    : 1 h 29 min
Bit rate                    : 4 819 b/s
Count of elements           : 1182
Stream size                 : 3.07 MiB (0%)
Title                       : Spanish Pgs
Language                    : Spanish
Default                     : No
Forced                      : No

Menu
00:00:00.000                : en:Chapter 1
00:05:10.310                : en:Chapter 2
00:09:46.085                : en:Chapter 3
00:14:24.029                : en:Chapter 4
00:18:34.029                : en:Chapter 5
00:23:14.309                : en:Chapter 6
00:30:38.044                : en:Chapter 7
00:35:34.799                : en:Chapter 8
00:40:36.475                : en:Chapter 9
 00:49:43.480                : en:Chapter 10
00:55:24.237                : en:Chapter 11
01:01:35.191                : en:Chapter 12
01:08:35.778                : en:Chapter 13
01:14:05.983                : en:Chapter 14
01:17:24.973                : en:Chapter 15
01:20:36.248                : en:Chapter 16


Imágenes



Descarga

Evil Dead (2013) 1080p (Lat/Eng)+Subtitulos Srt,Pgs y Forzados.



Contraseña

LeonardoPulgaman


Agradecimientos

Quiero agradecerle al user @MaximoAlfa inventor de este tipo de ripeos por su ayuda y por tomarme de alumno jeje.

Nota: se que me estuve tardando pero es porque ando ordenando el RPD, tengo como 7 peliculas para publicar que en estos dias ire posteando salu2!!!!!!!!!!!!!!!!!!!
peliculas - programas
140 Puntos Score: 8.8/10
Visitas: 1913 Favoritos: 5
Ver los usuarios que votaron...
26 Comentarios Exclusivo|Evil Dead (2013) 1080p Placebo CRF20
Eeeee soy el primero! XD Gracias por otra gran peli ma friend, ahi te van los puntos wuacho!  
Cita Protoss01: Mostrar
jajaj gracias bro, disfrutala!!
Lo unico bueno que tiene la peli es el cameo del final xD

Te dejo puntos, solo una duda, que tiene de exclusivo?

PD: Ojala hagas las originales!  
Cita hazumu12: Mostrar
gracias x pasarte! la peli no tiene nada q ver con la original y eso se acepta.. asi tendrian q ser las remake la misma idea pero llevandola a cabo de diferente forma, a mi me gusto   Hola amigos de Identi.li regreso a postear en esta gran comunidad, nada más ni nada menos que peliculas en la máxima calidad posible imitando al Blu-ray Original.

Esto se consigue mediante una Config. (Cfg) de ripeo exigente llamada Placebo y con un crf20 que es lo que alcanza a distinguir el ojo humano y dejando unos rips al peso menor posible con calidad me animaria a decir casi como el Bluray.
  eso tiene de exclusivo la forma en que se ripeo, saludos!!
woo que calidad mano, hay te van tus puntos, aportaasoo  
Cita zerox17: Mostrar
gracias bro,, la bajas y luego me dices que tal se ve! para los post futuros pondre sample del encodeo y del bluray para q vean q casi no hay diferencia, saludos!
Excelente aporte master, me agrada ver que se siga compartiendo
Saludos
Cita sdalpaso: Mostrar
gracias bro! disfrutala!
gracias master  
@PirateFan gracias x los puntos!!
Cita TroyMcClue: Mostrar
gracias x pasarte y los puntos! disfrutala!
@riveron809 gracias x los puntos!! q la disfrutes!
Muy buena calidad como siempre, me la llevo  
Cita WorldWarZ: Mostrar
saludos bro gracias x pasarte1 SALU2
muy muy bueno!!!!! primera peli de Fede Alvarez director de mi pais en USA
+5 saludos
Cita RMETAL: Mostrar
gracias bro no me olvide de tu pedido jajaja en unas horitas las subo! dsps de publicar el psot d ehoy, gracias x pasarte!
Cita Leopulga: Mostrar
no hay apuro muchas gracias!!!!!!!
gracias amigo .... por tus aportes... disculpasi no es molestia si pudieras poner en tu lista  " ESCAPE DE SOBIBOR " PARA HACERLA EN MEJOR CALIDAD O BAJARLA SI HAY EN BLURAY
 
Cita manigoldo2: Mostrar
dale bro la checo y te la hago y paso x mp, veo si hay algun 1080p! saludos y gracias x pasarte!
gracias x los puntos! @BobMarley7  
@Instituto gracias x los puntos!! disfrutala  
La calidad de la peli de Ip man me latió un buen se ve excelente, ahora me llevo esta buenaza de peli, muchas gracias bro un saludazo
Cita Duliori_28: Mostrar
muchas gracias bro! si se ve excelente lastima la camara que usaron para las escenas en el "lugar de peleas" de los japoneses, usaron una camara de inferior calidad y x eso el granulado en los negros pero q va a hacer asi es como se ve el bluray saludos y gracias tmbn x los puntos en ambos post!
Cita Leopulga: Mostrar
@Leopulga no puedes volver a subirla, no se xq no la acepta mipony
Cita multi: Mostrar
con jd bro
Para dejar un comentario Registrate! o.. eres ya usuario? Accede!
Facebook Identi