The Handmaids Tale sub 2017 E1 al 3 1080 x264 Mega

Bienvenidos a mi nuevo post
The Handmaids Tale sub 2017 E1 al 3
1080 x264 Mega




The.Handmaid's.Tale.S01E01 al 03.Late.1080p.HULU.WEBRip.DDP5.1.H.264-NTb.mkv
Año: 2017
País: Estados Unidos
Idioma: Ingles Subtitulos en Español Latino
Formato: mkv
Capítulos entre 1.80 GB y 2.3GB
E01 al 03


Argumento
En un distópico futuro cercano, la totalitaria y fundamentalista protestante gobierno de Gilead gobierna el anterior de Estados Unidos en medio de una continua guerra civil y el sometimiento de las mujeres, que no tienen permiso para trabajar, controlar el dinero, o incluso leer. Infertilidad generalizada debido a la contaminación del medio ambiente ha dado como resultado el reclutamiento de mujeres-llamados jóvenes fértiles Esclavas, de acuerdo con la precedente, que la Biblia son asignados a las casas de la élite gobernante, en la que deben someterse a violación ritual con sus amos masculinos con el fin de convertirse niños y embarazadas oso para los hombres y sus esposas.
El personaje principal, Defred, es la esclava asignada a un comandante Gileadean élite y su esposa, y como tal, está sujeto a las normas más estrictas y constante escrutinio; una palabra impropia o de hecho por parte de ella puede conducir a su ejecución. Denomina "Defred" debido a su amo se llama Fred, que puede recordar el "tiempo antes", cuando se casó con una hija y tenía su propio nombre, pero todo lo que con seguridad se puede hacer ahora es seguir las reglas de Gilead en esperanza que puede vivir un día libre. (Fuente Wikipedia)
Mediainfo

Video
ID                                       : 2
Format                                   : AVC
Format/Info                              : Advanced Video Codec
Format profile                           : [email protected]
Format settings, CABAC                   : Yes
Format settings, ReFrames                : 4 frames
Codec ID                                 : V_MPEG4/ISO/AVC
Duration                                 : 52mn 50s
Bit rate                                 : 4 800 Kbps
Width                                    : 1 920 pixels
Height                                   : 1 080 pixels
Display aspect ratio                     : 16:9
Frame rate mode                          : Constant
Frame rate                               : 23.976 (24000/1001) fps
Color space                              : YUV
Chroma subsampling                       : 4:2:0
Bit depth                                : 8 bits
Scan type                                : Progressive
Bits/(Pixel*Frame)                       : 0.097
Stream size                              : 1.77 GiB (99%)
Language                                 : English
Default                                  : Yes
Forced                                   : No

Audio
ID                                       : 1
Format                                   : AAC
Format/Info                              : Advanced Audio Codec
Format profile                           : HE-AAC / LC
Codec ID                                 : A_AAC
Duration                                 : 52mn 50s
Bit rate                                 : 64.0 Kbps
Channel(s)                               : 2 channels
Channel positions                        : Front: L R
Sampling rate                            : 48.0 KHz / 24.0 KHz
Frame rate                               : 23.438 fps (1024 spf)
Compression mode                         : Lossy
Stream size                              : 24.2 MiB (1%)
Language                                 : English
Default                                  : Yes
Forced                                   : No

Text
ID                                       : 3
Format                                   : UTF-8
Codec ID                                 : S_TEXT/UTF8
Codec ID/Info                            : UTF-8 Plain Text
Duration                                 : 51mn 52s
Bit rate                                 : 40 bps
Count of elements                        : 552
Stream size                              : 15.6 KiB (0%)
Language                                 : English
Default                                  : No
Forced                                   : No









Pd. No dejes de comentar!
peliculas - programas
0 Puntos Score: 0/10
Visitas: 544 Favoritos: 0
2 Comentarios The Handmaids Tale sub 2017 E1 al 3 1080 x264 Mega
@trucu1235 al parecer alguien te reportó los enlaces ya que no los protegiste, una lástima, he llegado tarde (espero puedas resubir y esta vez protegerlos para que duren). Por otra parte me parece que hubo un error con el mediainfo, ya que, este WEBRip de Ntb se supone viene con audio ingles 5.1 pero los datos que pusiste dice: 2 channels.
@KerBeroX Me hiciste dudar, lo que pasa es que tuve 2 versiones en mi mano y solo postee 1 por razones de tiempo, capaz le saque la mediainfo a la otra version. Ya que estuve viendo en Mega que la serie trae en el nombre 5.1 de audio, ahora no se como comprobarlo ya que tengo la serie en la red. ya esta editado los links buscalo aquí http://www.identi.li/index.php?topic=466789 cuando lo descargues me podrías confirmar lo del audio!
Para dejar un comentario Registrate! o.. eres ya usuario? Accede!
Facebook Identi