One Piece Pelicula 01 [1080p] [Español] [x265]

Argumento:
Había una vez un pirata de oro, Woonan, que obtuvo algo así como un tercio del oro del mundo. No obstante, en pocos años no se supo nada más de él, y se alimentó la leyenda de que desapareció junto con todo su oro camino a una isla remota, que los piratas aún hoy siguen buscando. Intentando obtener ese tesoro, Luffy y sus amigos intentarán impedir que El drago se haga con el oro de Woonan. Además, de que El drago tiene el poder de una fruta del diablo... En esta película aparecen Luffy, Zoro, Usopp y Nami. Para el momento de la trama televisiva, tomando como referencia que Sanji aún no se había unido al grupo, esta película se ubicaría después del Episodio 18 (De hecho, en el ending de la película, se puede ver que Sanji que todavía está en el Baratie).

Nota Importante:

Hola soy el administrador del blogspot as-bd y el usuario danteinfierno de mcanime aqui dejo esta pelicula


Media Info:

C:\Users\Dayvis\Downloads\One1001.mkv
   General
      Unique ID : 189585782423038518686520969298625149510 (0x8EA0E4BF0742077B898C98BEE327BA46)
      Complete name : C:\Users\Dayvis\Downloads\One1001.mkv
      Format : Matroska
      Format version : Version 4 / Version 2
      File size : 913 MiB
      Duration : 51 min 0 s
      Overall bit rate : 2 503 kb/s
      Encoded date : UTC 2017-05-02 18:59:58
      Writing application : mkvmerge v9.9.0 ('Pick Up') 64bit
      Writing library : libebml v1.3.4 + libmatroska v1.4.5
   Video #1
      ID : 1
      Format : HEVC
      Format/Info : High Efficiency Video Coding
      Format profile : [email protected]@Main
      Codec ID : V_MPEGH/ISO/HEVC
      Duration : 51 min 0 s
      Bit rate : 2 262 kb/s
      Width : 1 920 pixels
      Height : 1 080 pixels
      Display aspect ratio : 16:9
      Frame rate mode : Constant
      Frame rate : 23.976 (24000/1001) FPS
      Color space : YUV
      Chroma subsampling : 4:2:0
      Bit depth : 8 bits
      Bits/(Pixel*Frame) : 0.045
      Stream size : 825 MiB (90%)
      Default : Yes
      Forced : No
   Audio #2
      ID : 2
      Format : AAC
      Format/Info : Advanced Audio Codec
      Format profile : LC
      Codec ID : A_AAC
      Duration : 50 min 58 s
      Bit rate : 239 kb/s
      Channel(s) : 2 channels
      Channel positions : Front: L R
      Sampling rate : 48.0 kHz
      Frame rate : 46.875 FPS (1024 spf)
      Compression mode : Lossy
      Stream size : 87.0 MiB (10%)
      Default : Yes
      Forced : No
Capturas:




Link de Descarga:



Contraseña:
dayvis
peliculas - programas
22 Puntos Score: 5.5/10
Visitas: 856 Favoritos: 4
Ver los usuarios que votaron...
9 Comentarios One Piece Pelicula 01 [1080p] [Español] [x265]
Gracias, subrirás las demás?  
wenaa gracias ojala subas todas
gracias por el aporte
 y que estes bien saludos  
Muchas gracias espero puedas subir las demas, sigue asi  
MUCHAS GRACIAS, FAVOR SUBIR MAS
amigo que le paso a tu blog
google lo elimino por cipyright  no tengo archivos de respaldo del blogspot y no pude comprar un hosting
Cita dayvis: Mostrar
endonde estas posteando aparte de identi
Cita Shiro007: Mostrar
Estoy viendo opciones yo antes subía en trial audio español inglés japonés más por eso google eliminó mi blogspot estoy viendo una web hostjng que me permita subir sin tener problema con el copyright
Para dejar un comentario Registrate! o.. eres ya usuario? Accede!
Facebook Identi