Leopulga
"Ripeos AVC y HEVC solo para coleccionistas."

Exclusivo|Sleepy Hollow (1999) 1080p Placebo CRF20

Introducción

Hola amigos de Identi.li regreso a postear en esta gran comunidad, nada más ni nada menos que peliculas en la máxima calidad posible imitando al Blu-ray Original.

Esto se consigue mediante una Config. (Cfg) de ripeo exigente llamada Placebo y con un crf20 que es lo que alcanza a distinguir el ojo humano y dejando unos rips al peso menor posible con calidad me animaria a decir casi como el Bluray.

Sleepy Hollow (1999) 1080p English DTS 5.1



Sinopsis

Norteamérica, finales del siglo XVIII. El condestable Ichabod Crane (Johnny Depp), un investigador de Nueva York que utiliza avanzados métodos de averiguación, es enviado al pequeño y remoto pueblo de Sleepy Hollow para descubrir qué hay de verdad en la leyenda de un jinete sin cabeza que aterroriza a los habitantes del lugar.


Ficha Técnica

Fuente: BD50 (Jpn).
Ripeo: Placebo Crf19.5.
Tiempo de Ripeo: 20 horas.
Audio: Inglés.
Subtítulos: Si (Srt-Spanish)
IMDB: 7.4


Mediainfo

General
Unique ID                   : 206927866544742749792579336043998692770 (0x9BACDB81E3137855AD56D37A619F45A2)
Complete name               : A:SebastianSleepy Hollow (1999) Blu-ray 1080p Eng Dts 5.1.mkv
Format                      : Matroska
Format version              : Version 4 / Version 2
File size                   : 6.19 GiB
Duration                    : 1h 45mn
Overall bit rate            : 8 415 Kbps
Encoded date                : UTC 2017-05-01 18:13:13
Writing application         : mkvmerge v8.6.1 ('Flying') 64bit
Writing library             : libebml v1.3.3 + libmatroska v1.4.4
DURATION                    : 01:38:15.008000000
NUMBER_OF_FRAMES            : 788
NUMBER_OF_BYTES             : 27251
_STATISTICS_WRITING_APP     : mkvmerge v8.6.1 ('Flying') 64bit
_STATISTICS_WRITING_DATE_UT : 2017-05-01 18:13:13
_STATISTICS_TAGS            : BPS DURATION NUMBER_OF_FRAMES NUMBER_OF_BYTES

Video
ID                          : 1
Format                      : AVC
Format/Info                 : Advanced Video Codec
Format profile              : [email protected]
Format settings, CABAC      : Yes
Format settings, ReFrames   : 4 frames
Codec ID                    : V_MPEG4/ISO/AVC
Duration                    : 1h 45mn
Bit rate                    : 6 202 Kbps
Width                       : 1 920 pixels
Height                      : 1 080 pixels
Display aspect ratio        : 16:9
Frame rate mode             : Constant
Frame rate                  : 23.976 fps
Color space                 : YUV
Chroma subsampling          : 4:2:0
Bit depth                   : 8 bits
Scan type                   : Progressive
Bits/(Pixel*Frame)          : 0.125
Stream size                 : 4.56 GiB (74%)
Title                       : Sleepy Hollow (1999)
Writing library             : x264 core 148 r2744 b97ae06
Encoding settings           : cabac=1 / ref=4 / deblock=1:0:0 / analyse=0x3:0x133 / me=tesa / subme=11 / psy=1 / psy_rd=1.00:0.00 / mixed_ref=1 / me_range=24 / chroma_me=1 / trellis=2 / 8x8dct=1 / cqm=0 / deadzone=21,11 / fast_pskip=0 / chroma_qp_offset=-2 / threads=12 / lookahead_threads=3 / sliced_threads=0 / nr=0 / decimate=1 / interlaced=0 / bluray_compat=0 / constrained_intra=0 / bframes=16 / b_pyramid=2 / b_adapt=2 / b_bias=0 / direct=3 / weightb=1 / open_gop=0 / weightp=2 / keyint=240 / keyint_min=23 / scenecut=40 / intra_refresh=0 / rc_lookahead=60 / rc=crf / mbtree=1 / crf=19.5 / qcomp=0.60 / qpmin=0 / qpmax=69 / qpstep=4 / vbv_maxrate=62500 / vbv_bufsize=78125 / crf_max=0.0 / nal_hrd=none / filler=0 / ip_ratio=1.40 / aq=1:1.00
Default                     : Yes
Forced                      : No

Audio
ID                          : 2
Format                      : DTS
Format/Info                 : Digital Theater Systems
Format profile              : HRA / Core
Mode                        : 16
Format settings, Endianness : Big
Codec ID                    : A_DTS
Duration                    : 1h 45mn
Bit rate mode               : Constant
Bit rate                    : 2 046 Kbps / 1 509 Kbps
Channel(s)                  : 6 channels
Channel positions           : Front: L C R, Side: L R, LFE
Sampling rate               : 48.0 KHz
Bit depth                   : 16 bits
Compression mode            : Lossy
Stream size                 : 1.50 GiB (24%)
Title                       : English
Language                    : English
Default                     : Yes
Forced                      : No

Text
ID                          : 3
Format                      : UTF-8
Codec ID                    : S_TEXT/UTF8
Codec ID/Info               : UTF-8 Plain Text
Title                       : Spanish Srt
Language                    : Spanish
Default                     : Yes
Forced                      : No

Menu
00:00:00.000                : en:The Fate of Peter Van Garrett
00:03:50.480                : en:Constable Crane
00:07:21.732                : en:Sleepy Hollow
00:13:40.569                : en:The Headless Horseman
00:19:18.866                : en:Masbath's Terrible Death
00:27:08.710                : en:Five Victims, Four Graves
00:29:48.661                : en:A Wakeful Night
00:36:41.991                : en:Magistrate Philipse
00:42:16.200                : en:The Western Woods
00:46:51.850                : en:Tree of the Dead
00:52:27.143                : en:The Killian Family
00:58:15.366                : en:"You Have Bewitched Me"
01:03:25.092                : en:The Secret Conspiracy
01:10:13.042                : en:An Angry Wound
01:14:50.319                : en:Murder Begets Murder
01:19:09.077                : en:Evil Eye
01:23:28.920                : en:The Archer
01:31:19.015                : en:A Head for a Head
01:38:35.367                : en:A New Century


Imágenes



Descarga

Sleep Hollow (1999) 1080p English DTS 5.1.



Contraseña

LeonardoPulgaman


Nota: Se uso bd25 porque no existe BD50, no se incluyo el latino porque el remux no traia y no habia fuente de audio latino disponible para extraer, si alguno tiene el dvdfull que me diga que extraigo el audio y le aplico el delay correspondiente, salu2.
peliculas - programas
125 Puntos Score: 9.6/10
Visitas: 1509 Favoritos: 2
Ver los usuarios que votaron...
24 Comentarios Exclusivo|Sleepy Hollow (1999) 1080p Placebo CRF20
gracias por el esfuerzo compa
Cita WorldWarZ: Mostrar
gracias bro, gracias a ti por pasarte siempre !!  
De lujo men, cuando me carguen los puntos regreso.

Salutes.
Cita MLPF: Mostrar
no ha problema, disfrutala!!
muchas gracias bro saludos  
Cita radamez69: Mostrar
que la disfrutes amigo! gracias x tomarte la molestia de dejar tu comentario de agradecimiento!  
Muchas gracias    
Muchas gracias por compartirla,busque el dvdfull para el audio latino pero el que encontre no funcionan los link,me disculpo por no poder ayudarlo   . Saludos !!
Cita WorldWarZ: Mostrar

Cita MLPF: Mostrar

Cita radamez69: Mostrar

Cita HYAKIMARU: Mostrar

Cita shanks01: Mostrar

Consegui gracias a una amiga el latino nada mas ni nada menos que del bluray de USA ac3 5.1 640kbps.. no se si postear de nuevo la peli y borrar este o si solo les paso el audio, que opinan usts?
@Leopulga Subi de nuevo y audio aparte asi los que descargamos de aca solo lo unimos mkvtoolnix, yo consegui uno pero 2.0.
Cita WorldWarZ: Mostrar
dales es buena idea, hare el post con el audio ya dentro del mkv y tmbn lo subire x separado! para mna ya tendria q estar
Cita Leopulga: Mostrar
esta genial... Gracias , te dejo puntos en este, esperando esa nueva ya con el Latino  
Cita osa16: Mostrar
para hoy en la noche junto a un nuevo aporte de una peli de terror clasica   gracias x los puntos y x el comentario!!  
Lo prometido es deuda +10 y ojalá también pudieras subir aparte la pista de audio latino.

Salutes.
Cita MLPF: Mostrar
hoy en la noche con 1 o quizas 2 post mas
Buena peli amigo, excelentes aportes    
Espero ancioso las de El Señor De Los Anillos  
Saludos  
Cita Daniel_07: Mostrar
gracias bro, la idea es publicarla ya con el latino del bd, pasa q me atrase x una peli q aun no salio del horno jajaja casi 3 dias me tardo! gracias x pasarte!
Gracias , te dejo todos mis puntos
Cita Espinal: Mostrar
gracias bro, esperate a bajar esta, ya q la resubire cn el latino del bluray
Gran aporte amigo!!!!  
Cita Instituto: Mostrar
gracias bro x pasarte y los puntos!
Cita Leopulga: Mostrar
Para dejar un comentario Registrate! o.. eres ya usuario? Accede!
Facebook Identi