Leopulga
"Ripeos AVC y HEVC solo para coleccionistas."

Exclusivo|Split (2016) 1080p VerySlow CRF20

Introducción

Hola amigos de Identi.li regreso a postear en esta gran comunidad, nada más ni nada menos que peliculas en la máxima calidad posible imitando al Blu-ray Original.

Esto se consigue mediante una Config. (Cfg) de ripeo exigente llamada Placebo o veryslow y con un crf20 que es lo que alcanza a distinguir el ojo humano y dejando unos rips al peso menor posible con calidad me animaria a decir casi como el Bluray.

Importante

SOMOS UN GRUPO DE ENCODERS, EN ESTE CASO LES TRAIGO SPLIT (2016) EN CALIDAD X264 VERYSLOW CRF20 RIPEADA POR UNA DEL GRUPO @THEWOMAN00, DEJEN SUS AGRADECIMIENTOS HACIA ELLA.


Split (2016) 1080p Dual (Lat/Ing).



Sinopsis

A pesar de que Kevin (James McAvoy) le ha demostrado a su psiquiatra de confianza, la Dra. Fletcher (Betty Buckley), que posee 23 personalidades diferentes, aún queda una por emerger, decidida a dominar a todas las demás. Obligado a raptar a tres chicas adolescentes encabezadas por la decidida y observadora Casey (Anya Taylor-Joy), Kevin lucha por sobrevivir contra todas sus personalidades y la gente que le rodea, a medida que las paredes de sus compartimentos mentales se derrumban.


Ficha Técnica

Fuente: BD50 (Usa).
Ripeo: Placebo Crf20.
Tiempo de Ripeo: 10 horas.
Audio: Latino y Inglés.
Subtítulos: Si (Srt-Spanish) y (Pgs-Spanish)
IMDB: 7.4


Mediainfo

General
Unique ID                   : 174742255714419680240442808664883639579 (0x837622605F2F78C1B3D215260F9AB51B)
Complete name               : A:SebastianSplit 2016 1080p BluRay x264 DTS Dual Latino-THEWOMAN00.mkv
Format                      : Matroska
Format version              : Version 4 / Version 2
File size                   : 3.91 GiB
Duration                    : 1h 57mn
Overall bit rate            : 4 785 Kbps
Encoded date                : UTC 2017-04-08 17:30:11
Writing application         : mkvmerge v9.6.0 ('Slave To Your Mind') 64bit
Writing library             : libebml v1.3.4 + libmatroska v1.4.5
DURATION                    : 01:46:21.667000000
NUMBER_OF_FRAMES            : 18
NUMBER_OF_BYTES             : 54572
_STATISTICS_WRITING_APP     : mkvmerge v9.6.0 ('Slave To Your Mind') 64bit
_STATISTICS_WRITING_DATE_UT : 2017-04-08 17:30:11
_STATISTICS_TAGS            : BPS DURATION NUMBER_OF_FRAMES NUMBER_OF_BYTES

Video
ID                          : 1
Format                      : AVC
Format/Info                 : Advanced Video Codec
Format profile              : High@L4.1
Format settings, CABAC      : Yes
Format settings, ReFrames   : 4 frames
Codec ID                    : V_MPEG4/ISO/AVC
Duration                    : 1h 57mn
Bit rate                    : 2 413 Kbps
Width                       : 1 920 pixels
Height                      : 1 080 pixels
Display aspect ratio        : 16:9
Frame rate mode             : Constant
Frame rate                  : 23.976 fps
Color space                 : YUV
Chroma subsampling          : 4:2:0
Bit depth                   : 8 bits
Scan type                   : Progressive
Bits/(Pixel*Frame)          : 0.049
Stream size                 : 1.97 GiB (50%)
Writing library             : x264 core 148 r2638 7599210
Encoding settings           : cabac=1 / ref=4 / deblock=1:0:0 / analyse=0x3:0x133 / me=tesa / subme=10 / psy=1 / psy_rd=1.00:0.00 / mixed_ref=1 / me_range=24 / chroma_me=1 / trellis=2 / 8x8dct=1 / cqm=0 / deadzone=21,11 / fast_pskip=1 / chroma_qp_offset=-2 / threads=12 / lookahead_threads=2 / sliced_threads=0 / nr=0 / decimate=1 / interlaced=0 / bluray_compat=0 / constrained_intra=0 / bframes=8 / b_pyramid=2 / b_adapt=2 / b_bias=0 / direct=3 / weightb=1 / open_gop=0 / weightp=2 / keyint=240 / keyint_min=23 / scenecut=40 / intra_refresh=0 / rc_lookahead=60 / rc=crf / mbtree=1 / crf=20.0 / qcomp=0.60 / qpmin=0 / qpmax=69 / qpstep=4 / vbv_maxrate=62500 / vbv_bufsize=78125 / crf_max=0.0 / nal_hrd=none / filler=0 / ip_ratio=1.40 / aq=1:1.00
Default                     : Yes
Forced                      : No

Audio #1
ID                          : 2
Format                      : DTS
Format/Info                 : Digital Theater Systems
Mode                        : 16
Format settings, Endianness : Big
Codec ID                    : A_DTS
Duration                    : 1h 57mn
Bit rate mode               : Constant
Bit rate                    : 1 509 Kbps
Channel(s)                  : 6 channels
Channel positions           : Front: L C R, Side: L R, LFE
Sampling rate               : 48.0 KHz
Bit depth                   : 24 bits
Compression mode            : Lossy
Stream size                 : 1.23 GiB (32%)
Language                    : English
Default                     : Yes
Forced                      : No

Audio #2
ID                          : 3
Format                      : DTS
Format/Info                 : Digital Theater Systems
Mode                        : 16
Format settings, Endianness : Big
Codec ID                    : A_DTS
Duration                    : 1h 57mn
Bit rate mode               : Constant
Bit rate                    : 768 Kbps
Channel(s)                  : 6 channels
Channel positions           : Front: L C R, Side: L R, LFE
Sampling rate               : 48.0 KHz
Bit depth                   : 24 bits
Compression mode            : Lossy
Stream size                 : 643 MiB (16%)
Language                    : Spanish
Default                     : No
Forced                      : No

Text #1
ID                          : 4
Format                      : UTF-8
Codec ID                    : S_TEXT/UTF8
Codec ID/Info               : UTF-8 Plain Text
Language                    : Spanish
Default                     : Yes
Forced                      : No

Text #2
ID                          : 5
Format                      : UTF-8
Codec ID                    : S_TEXT/UTF8
Codec ID/Info               : UTF-8 Plain Text
Default                     : No
Forced                      : No

Text #3
ID                          : 6
Format                      : PGS
Muxing mode                 : zlib
Codec ID                    : S_HDMV/PGS
Codec ID/Info               : Picture based subtitle format used on BDs/HD-DVDs
Language                    : Spanish
Default                     : No
Forced                      : No

Text #4
ID                          : 7
Format                      : PGS
Muxing mode                 : zlib
Codec ID                    : S_HDMV/PGS
Codec ID/Info               : Picture based subtitle format used on BDs/HD-DVDs
Language                    : Spanish
Default                     : No
Forced                      : No

Menu
00:00:00.000                : en:Chapter 01
00:06:08.451                : en:Chapter 02
00:14:19.024                : en:Chapter 03
00:20:49.373                : en:Chapter 04
00:24:14.536                : en:Chapter 05
00:28:37.048                : en:Chapter 06
00:35:47.979                : en:Chapter 07
00:42:35.386                : en:Chapter 08
00:49:06.068                : en:Chapter 09
00:54:09.412                : en:Chapter 10
01:00:24.495                : en:Chapter 11
01:06:22.561                : en:Chapter 12
01:12:31.221                : en:Chapter 13
01:19:35.771                : en:Chapter 14
01:25:25.829                : en:Chapter 15
01:29:16.559                : en:Chapter 16
01:34:08.225                : en:Chapter 17
01:40:45.998                : en:Chapter 18
01:47:40.287                : en:Chapter 19
01:52:26.740                : en:Chapter 20

Imagenes



Descarga

Split (2016) Blu-ray 1080p Eng-Lat x264 AVC.



Cita: Mostrar

Contraseña

LeonardoPulgaman


Nota: no hay.

peliculas - programas
85 Puntos Score: 9.4/10
Visitas: 1944 Favoritos: 3
Ver los usuarios que votaron...
31 Comentarios Exclusivo|Split (2016) 1080p VerySlow CRF20
Buen aporte, se agradece el esfuerzo.

Salutes.
Cita MLPF: Mostrar
gracias x siempre psarte y los puntos bro!! disfrutala!
Cita rafahack: Mostrar
solucionado !
Cita rafahack: Mostrar
gracias x los puntos y avisarme!!  
No funca el zelda
Cita JackStone: Mostrar
?
@Leopulga Ah ya esta arreglaste el link   . Lo malo es q es rar   pero bueno  q se le va a hacer
@JackStone No funca pariente!, de nada!
gran pelicula!!!!!! muchas gracias
Cita JackStone: Mostrar

Cita rafahack: Mostrar
como que no funca? y el rar es x proteccion para q el archivo no se suba dañado
Cita RMETAL: Mostrar
disfrutala amigo!!
voy a bajarla saludos muchas gracias    
Cita radamez69: Mostrar
disfrutala!!
excelente aporte, gracias por compartir
Cita ringooooo: Mostrar
disfrutala!  
genial aporte ...me lo llevo muchas gracias ...haber que tal se ve jjj x
Cita brianmixers: Mostrar
disfrutala!!
gracias x los puntos @pericos
amigo, ya lo cheque y esta movie y requiem for a dream se ven perfectas en mi pantalla y tambien las reproduce el bluray tal vez el problema fue con la de let me in pero no hay bronca estoy muy contento con las que estoy bajando, saludos y mil gracias
Cita bonoman78: Mostrar
es raro amigo, estan ripeadas todas de la misma manera jajaja esperate sera q el video te reproduce pero no el audio amigo? si es eso es x el audio xq let the right one in tiene dts-hd master, las 2 que vos me nombraste tienen dts hd solamente.. q bueno q te gusten bro, gracias x pasar a comentar!! disfrutalas!
pero te comento que no es por presunción ni mucho menos pero tengo un home theater que es 9.1 canales, reproduce sin problemas cualquier tipo de audio que haya en el mercado, lo que se me hace que paso es que se descomprimio mal la voy a volver a descargar a ver si se soluciona el problema, de antemano muchas gracias
Groso como siempre
@bonoman78 Que equipo tienes exactamente?
Cita Protoss01: Mostrar
gracias bro, yo nada del otro mundo, para ripear uso Rpd bro ajjaja
Cita Protoss01: Mostrar
es este amigo http://www.lg.com/mx/home-theater/lg-BH9540TW
es muy comercial pero la verdad me tiene muy contento, tiene un sonido muy limpio y si llena al 100% mi sala de audiovisuales, saludos.
Cita Espinal: Mostrar
Cita JohannID: Mostrar
disfrutala!
Gracias man por el aporte, podrias subir Jonh
wick 2?
Para dejar un comentario Registrate! o.. eres ya usuario? Accede!
Facebook Identi