El Libro de la selva [UHD 4k - Trial Esp-Lat-Ing]



Título original: The Jungle Book
Año: 2016
Duración: 105 min.
País: Estados Unidos Estados Unidos
Director: Jon Favreau
Guion: Justin Marks (Novela: Rudyard Kipling)
Música: John Debney
Fotografía: Bill Pope
Reparto: Neel Sethi,  Bill Murray,  Ben Kingsley,  Idris Elba,  Lupita Nyong'o, Scarlett Johansson,  Giancarlo Esposito,  Christopher Walken,  Garry Shandling
Productora: Walt Disney Pictures / Fairview Entertainment / Moving Picture Company (MPC)
Género: Aventuras. Fantástico. Animación | Cine familiar. Naturaleza. Animales. 3-D. Remake
Grupos: Adaptaciones de Rudyard Kipling | El Libro de la Selva (Disney) | Remakes de Clásicos de Disney Novedad

Sinopsis
Mowgli (Neel Sethi), un niño criado en la selva por una manada de lobos, emprende un fascinante viaje de autodescubrimiento cuando se ve obligado a abandonar el único hogar que ha conocido en toda su vida. Nueva adaptación de la novela de Rudyard Kipling. (FILMAFFINITY)


Información Técnica

General
Complete name: The Jungle Book (2016).mkv
Format: Matroska
Format version: Version 4 / Version 2
File size: 4.37 GiB
Duration: 1 h 45 min
Overall bit rate: 5 901 kb/s
Movie name: The Jungle Book (2016) 4K - www.MegaColecciones.com
Encoded date: UTC 2016-09-05 23:38:26
Writing application: mkvmerge v7.4.0 ('Circles') 64bit built on Dec 12 2014 12:19:56
Writing library: libebml v1.3.0 + libmatroska v1.4.1

Video
Format: HEVC
Format/Info: High Efficiency Video Coding
Codec ID: V_MPEGH/ISO/HEVC
Duration: 1 h 45 min
Bit rate: 4 747 kb/s
Width: 3 840 pixels
Height: 2 080 pixels
Display aspect ratio: 1.85:1
Frame rate mode: Constant
Frame rate: 23.976 (24000/1001) FPS
Bits/(Pixel*Frame): 0.025
Stream size: 3.51 GiB (80%)

Audio #1
Format: AC-3
Format/Info: Audio Coding 3
Format settings, Endianness: Big
Codec ID: A_AC3
Duration: 1 h 45 min
Bit rate mode: Constant
Bit rate: 384 kb/s
Channel(s): 6 channels
Channel positions: Front: L C R, Side: L R, LFE
Sampling rate: 48.0 kHz
Frame rate: 31.250 FPS (1536 spf)
Bit depth: 16 bits
Compression mode: Lossy
Stream size: 291 MiB (7%)
Language: Spanish
Service kind: Complete Main
Default: Yes
Forced: Yes

Audio #2
Format: AC-3
Format/Info: Audio Coding 3
Format settings, Endianness: Big
Codec ID: A_AC3
Duration: 1 h 45 min
Bit rate mode: Constant
Bit rate: 384 kb/s
Channel(s): 6 channels
Channel positions: Front: L C R, Side: L R, LFE
Sampling rate: 48.0 kHz
Frame rate: 31.250 FPS (1536 spf)
Bit depth: 16 bits
Compression mode: Lossy
Stream size: 291 MiB (7%)
Language: Latin
Service kind: Complete Main
Default: No
Forced: No

Audio #3
Format: AC-3
Format/Info: Audio Coding 3
Format settings, Endianness: Big
Codec ID: A_AC3
Duration: 1 h 45 min
Bit rate mode: Constant
Bit rate: 384 kb/s
Channel(s): 6 channels
Channel positions: Front: L C R, Side: L R, LFE
Sampling rate: 48.0 kHz
Frame rate: 31.250 FPS (1536 spf)
Bit depth: 16 bits
Compression mode: Lossy
Stream size: 291 MiB (7%)
Language: English
Service kind: Complete Main
Default: No
Forced: No

Text
Format: UTF-8
Codec ID: S_TEXT/UTF8
Codec ID/Info: UTF-8 Plain Text
Duration: 1 h 38 min
Bit rate: 43 b/s
Count of elements: 850
Stream size: 31.2 KiB (0%)
Language: Spanish
Default: Yes
Forced: Yes


Miniaturas + Capturas 









Password para extraer: identi

Descarga:



Para MegaDownloader:


Cita: Mostrar
peliculas - programas
52 Puntos Score: 8.7/10
Visitas: 1625 Favoritos: 3
Ver los usuarios que votaron...
11 Comentarios El Libro de la selva [UHD 4k - Trial Esp-Lat-Ing]
Maestro real mente buen aporte por fin alguien que pone bien detallado los detalles perfecto amigo hay van +10   me la llevo a tu versión y voy a estar siguiendo a tus futuros aportes
gracias por por los links para el megad te dejo puntos.
buenisimo, se escucha un sumbido molesto en latin y español, saben como lo puedo solucionar? es se escucha como un barrido
@kanonhjf @nightmarex @KITAN2K @n4ngunkick Gracias por pasar y comentar

PD: Es raro lo de ese zumbido, yo lo ví en el SmartTV y se escucha bien.
Si tuviera un TV HD seria hermoso verla ahí   gracias
que reproductor me recomiendas XQ NO LO PUEDO VER
yo tambein tengo la misma pregunta que reproductor usas por que o no se ven o se reproduce con problemas con los que e probado
@jackarcher @nightmarex En PC sería sólo en VLC, aunque es muy probable que se vea entrelazado, yo al menos en mi TV no tengo problemas para verlo.

PD: Disculpen la demora, sólo me conecto fin de semanas y a veces viernes de noche.
gracias pero tengo conectada la lap a la tv probe con divx player y funciono pero me dice que tengo que pagar por que mi version no soprta el audio jajaja seguire buscando gracias.
Excelente, gracias.
Para dejar un comentario Registrate! o.. eres ya usuario? Accede!
Facebook Identi