Los Ilusionistas 2 [UHD 4k-Dual Lat-Ing] Mega


Título original: Now You See Me 2
Año: 2016
Duración: 129 min.
País: Estados Unidos Estados Unidos
Director: Jon Chu
Guion: Ed Solomon, Pete Chiarelli
Música: Brian Tyler
Fotografía: Peter Deming
Reparto: Mark Ruffalo,  Woody Harrelson,  Jesse Eisenberg,  Dave Franco,  Morgan Freeman, Michael Caine,  Daniel Radcliffe,  Lizzy Caplan,  Jay Chou,  Tsai Chin,  Richard Laing, Sanaa Lathan
Productora: Lionsgate / Summit Entertainment
Género: Thriller. Comedia | Magia. Secuela

Sinopsis
Un año después de despistar al FBI y conseguir la admiración del público con sus espectáculos mentales, los cuatro jinetes vuelven a la luz pública, pero un nuevo enemigo se propone arruinar su golpe más espectacular y peligroso hasta la fecha... Secuela de "Now You See Me" de 2013. (FILMAFFINITY)


Información técnica:

General

Complete name: Now You See Me 2 (2016).mkv
Format: Matroska
Format version: Version 4 / Version 2
File size: 4.66 GiB
Duration: 2 h 9 min
Overall bit rate: 5 168 kb/s
Movie name: Now You See Me 2 (2016) 4K - www.MegaColecciones.com
Encoded date: UTC 2016-09-05 23:27:39
Writing application: mkvmerge v7.4.0 ('Circles') 64bit built on Dec 12 2014 12:19:56
Writing library: libebml v1.3.0 + libmatroska v1.4.1

Video
Format: HEVC
Format/Info: High Efficiency Video Coding
Codec ID: V_MPEGH/ISO/HEVC
Duration: 2 h 9 min
Bit rate: 4 398 kb/s
Width: 3 840 pixels
Height: 1 600 pixels
Display aspect ratio: 2.40:1
Frame rate mode: Constant
Frame rate: 23.976 (24000/1001) FPS
Bits/(Pixel*Frame): 0.030
Stream size: 3.97 GiB (85%)

Audio #1
Format: AC-3
Format/Info: Audio Coding 3
Format settings, Endianness: Big
Codec ID: A_AC3
Duration: 2 h 9 min
Bit rate mode: Constant
Bit rate: 384 kb/s
Channel(s): 6 channels
Channel positions: Front: L C R, Side: L R, LFE
Sampling rate: 48.0 kHz
Frame rate: 31.250 FPS (1536 spf)
Bit depth: 16 bits
Compression mode: Lossy
Stream size: 355 MiB (7%)
Language: Latin
Service kind: Complete Main
Default: Yes
Forced: Yes

Audio #2
Format: AC-3
Format/Info: Audio Coding 3
Format settings, Endianness: Big
Codec ID: A_AC3
Duration: 2 h 9 min
Bit rate mode: Constant
Bit rate: 384 kb/s
Channel(s): 6 channels
Channel positions: Front: L C R, Side: L R, LFE
Sampling rate: 48.0 kHz
Frame rate: 31.250 FPS (1536 spf)
Bit depth: 16 bits
Compression mode: Lossy
Stream size: 355 MiB (7%)
Language: English
Service kind: Complete Main
Default: No
Forced: No

Text
Format: UTF-8
Codec ID: S_TEXT/UTF8
Codec ID/Info: UTF-8 Plain Text
Duration: 2 h 8 min
Bit rate: 85 b/s
Count of elements: 2354
Stream size: 80.4 KiB (0%)
Language: Spanish
Default: Yes
Forced: Yes


Miniaturas + capturas









Password para extraer: identi

Descarga



Para MegaDownloader


Cita: Mostrar
descargar peliculas - descargar programas
25 Puntos Score: 8.3/10
Visitas: 2166 Favoritos: 5
Ver los usuarios que votaron...
19 Comentarios Los Ilusionistas 2 [UHD 4k-Dual Lat-Ing] Mega
Tendrás las 1 ? ?
@WiLyGuDi En esta calidad no, sólo en 1080p
La puedes subir   No importa la calidad esa estabien
Estimado, la bajé y me dió error de que la parte 1 estaba corrupta, procedí a descargarla nuevamente y me sigue dando el mismo error, puedes corroborarlo?

Gracias
pide contraseña para descomprimir
@WiLyGuDi @doddito @yaguanegro @ctoledo12 Gracias por pasar y comentar...

@doddito Verificaré lo que me dices... empiezo ya a descargar..

@ctoledo12 la contreseña es "identi" sin comillas.
@doddito Estimado, descargué las 3 partes, descomprimí y no me dió ningún error, sin archivos corruptos ni nada, incluso fui a la opción "comprobar" del winrar y salió todo sin dramas, te dejo algunas capturas como prueba de lo que digo.

IMG1: https://fotos.subefotos.com/398d049a04d81ec86c6d49a46e826e23o.png
IMG2: https://fotos.subefotos.com/268fc6fa9b1ff11d1cbceaa48e875a84o.png
IMG3: https://fotos.subefotos.com/ca9b0004d2f55e50cd2840b8c12b981ao.png
IMG4: https://fotos.subefotos.com/7db696267b661a613a8ba516c50c2809o.png
@krstno Gracias no se que pasó pero por fin pude verla, muy buena movie. Gracias !
@krstno La descargue 2 veces y me dice al extraer con Winrar ¨El archivo tiene un formato desconocido o esta dañado¨ probe repararlo y nada, sabes que podra ser?
@Adrien Pues como comenté anteriormente, descargué, descomprimí y todo sin problemas, pregunta ¿Tienes winrar 5? quizás tengas una versión anterior y no permita extraerlo. :/
Cita krstno: Mostrar

Era eso ahora tengo otro problema, probe todos lo reproductores de videos y solo se escucha el audio, tendre que bajar codecs?  
@Adrien Pues lo he visto en VLC sin problemas... prueba quizás bajando el k lite codec...
@krstno Gracias por la ayuda ya pude solucionar el problema, la pude ver!
Bajando gracias por el aporte  
bajando +10
Para dejar un comentario Registrate! o.. eres ya usuario? Accede!
Facebook Identi