Hasta el último hombre [UHD 4k - Dual Lat-ing]Mega



Título original: Hacksaw Ridge
Año: 2016
Duración: 131 min.
País: Estados Unidos Estados Unidos
Director: Mel Gibson
Guion: Robert Schenkkan, Andrew Knight
Música: Rupert Gregson-Williams
Fotografía: Simon Duggan
Reparto: Andrew Garfield,  Sam Worthington,  Hugo Weaving,  Vince Vaughn,  Teresa Palmer, Luke Bracey,  Rachel Griffiths,  Richard Roxburgh,  Matt Nable,  Nathaniel Buzolic, Ryan Corr, Goran D. Kleut,  Firass Dirani,  Milo Gibson,  Ben O'Toole,  Richard Pyros, Robert Morgan, Dennis Kreusler,  Michael Sheasby,  Ben Mingay, Damien Thomlinson,  Nico Cortez,  Darcy Bryce,  Roman Guerriero
Productora: Lionsgate / Pandemonium Films / Permut Productions / Vendian Entertainment / Kylin Pictures
Género: Bélico. Drama | Biográfico. II Guerra Mundial. Años 40

Sinopsis
Narra la historia de Desmond Doss, un joven médico militar que participó en la sangrienta batalla de Okinawa, en el Pacífico durante la II Guerra Mundial, y se convirtió en el primer objetor de conciencia en la historia estadounidense en recibir la Medalla de Honor del Congreso. Doss quería servir a su país, pero desde pequeño se había hecho una promesa a sí mismo: no coger jamás ningún arma. (FILMAFFINITY)


Información Técnica
General
Complete name: Hacksaw.Ridge.2016.4K.lat.ingHacksaw.Ridge.2016.4K.lat.ing.mkv
Format: Matroska
Format version: Version 2
File size: 5.23 GiB
Duration: 2 h 19 min
Overall bit rate: 5 375 kb/s
Encoded date: UTC 2017-02-09 19:58:56
Writing application: mkvmerge v5.8.0 ('No Sleep / Pillow') built on Sep  2 2012 15:37:04
Writing library: libebml v1.2.3 + libmatroska v1.3.0

Video
Format: HEVC
Format/Info: High Efficiency Video Coding
Codec ID: V_MPEGH/ISO/HEVC
Duration: 2 h 19 min
Bit rate: 4 500 kb/s
Width: 3 840 pixels
Height: 1 616 pixels
Display aspect ratio: 2.40:1
Frame rate mode: Constant
Frame rate: 23.976 (24000/1001) FPS
Bits/(Pixel*Frame): 0.030
Stream size: 4.38 GiB (84%)

Audio #1
Format: AC-3
Format/Info: Audio Coding 3
Format settings, Endianness: Big
Muxing mode: Header stripping
Codec ID: A_AC3
Duration: 2 h 19 min
Bit rate mode: Constant
Bit rate: 384 kb/s
Channel(s): 6 channels
Channel positions: Front: L C R, Side: L R, LFE
Sampling rate: 48.0 kHz
Frame rate: 31.250 FPS (1536 spf)
Bit depth: 16 bits
Compression mode: Lossy
Stream size: 383 MiB (7%)
Language: Latin
Service kind: Complete Main
Default: Yes
Forced: Yes

Audio #2
Format: AC-3
Format/Info: Audio Coding 3
Format settings, Endianness: Big
Muxing mode: Header stripping
Codec ID: A_AC3
Duration: 2 h 19 min
Bit rate mode: Constant
Bit rate: 384 kb/s
Channel(s): 6 channels
Channel positions: Front: L C R, Side: L R, LFE
Sampling rate: 48.0 kHz
Frame rate: 31.250 FPS (1536 spf)
Bit depth: 16 bits
Compression mode: Lossy
Stream size: 383 MiB (7%)
Language: English
Service kind: Complete Main
Default: No
Forced: No

Text
Format: UTF-8
Codec ID: S_TEXT/UTF8
Codec ID/Info: UTF-8 Plain Text
Language: Spanish
Default: Yes
Forced: Yes


Miniaturas + capturas









Password para extraer: identi

Descarga



Para MegaDownloader


Cita: Mostrar
peliculas - programas
20 Puntos Score: 10/10
Visitas: 1553 Favoritos: 2
Ver los usuarios que votaron...
4 Comentarios Hasta el último hombre [UHD 4k - Dual Lat-ing]Mega
genial aporte me lo llevo... muchas gracias
Muchas gracias por el aporte  
Para dejar un comentario Registrate! o.. eres ya usuario? Accede!
Facebook Identi