Ip Man 3 [4k UHD Dual Lat-Chino][2015] Mega


Título original: Ip Man 3
País: Hong Kong
Estreno en USA: 22/01/2016
Estreno en Hong Kong: 24/12/2015
Estreno en Blu-ray: 24/08/2016
Productora: Dreams Salon Entertainment Culture, Pegasus Motion Pictures, Starbright Communications
Director: Wilson Yip
Guión: Lai-yin Leung, Chan Tai-Li, Edmond Wong
Reparto: Donnie Yen, Mike Tyson, Patrick Tam, Jin Zhang, Lynn Hung, Kwok-Kwan Chan, Ka-Yan Leung, Meng Lo, Kang Yu, Karena Ng, Sarut Khanwilai, Kai-Chung Cheung, Babyjohn Choi, Siu-Hung Leung


Sinopsis

Cuando una banda de crueles gangsters dirigidos por un retorcido promotor inmobiliario intenta hacerse dueño y señor de la ciudad, el maestro Ip se verá obligado a intervenir.

Información Técnica

General
Complete name: Ip Man 3 (2015).mkv
Format: Matroska
Format version: Version 4 / Version 2
File size: 3.98 GiB
Duration: 1 h 44 min
Overall bit rate: 5 440 kb/s
Movie name: Ip Man 3 (2015)
Encoded date: UTC 2016-11-06 21:46:03
Writing application: mkvmerge v9.4.2 ('So High') 64bit
Writing library: libebml v1.3.4 + libmatroska v1.4.5

Video
Format: HEVC
Format/Info: High Efficiency Video Coding
Codec ID: V_MPEGH/ISO/HEVC
Duration: 1 h 44 min
Bit rate: 4 798 kb/s
Width: 3 840 pixels
Height: 2 160 pixels
Display aspect ratio: 16:9
Frame rate mode: Constant
Frame rate: 24.000 FPS
Bits/(Pixel*Frame): 0.024
Stream size: 3.51 GiB (88%)
Title: Ip Man 3

Audio #1
Format: AC-3
Format/Info: Audio Coding 3
Format settings, Endianness: Big
Codec ID: A_AC3
Duration: 1 h 44 min
Bit rate mode: Constant
Bit rate: 256 kb/s
Channel(s): 2 channels
Channel positions: Front: L R
Sampling rate: 48.0 kHz
Frame rate: 31.250 FPS (1536 spf)
Bit depth: 16 bits
Compression mode: Lossy
Delay relative to video: 6 ms
Stream size: 192 MiB (5%)
Title: Español Latino
Language: Latin
Service kind: Complete Main
Default: Yes
Forced: Yes

Audio #2
Format: AC-3
Format/Info: Audio Coding 3
Format settings, Endianness: Big
Codec ID: A_AC3
Duration: 1 h 44 min
Bit rate mode: Constant
Bit rate: 384 kb/s
Channel(s): 6 channels
Channel positions: Front: L C R, Side: L R, LFE
Sampling rate: 44.1 kHz
Frame rate: 28.711 FPS (1536 spf)
Bit depth: 16 bits
Compression mode: Lossy
Stream size: 287 MiB (7%)
Title: Chino
Language: Chinese
Service kind: Complete Main
Default: No
Forced: No

Text
Format: UTF-8
Codec ID: S_TEXT/UTF8
Codec ID/Info: UTF-8 Plain Text
Duration: 1 h 40 min
Bit rate: 39 b/s
Count of elements: 1115
Stream size: 29.2 KiB (0%)
Title: Español Latino
Language: Spanish
Default: Yes
Forced: No


Miniaturas + capturas











Password para extraer rar: identi

Descarga:



Para MegaDownloader


Cita: Mostrar
peliculas - programas
20 Puntos Score: 10/10
Visitas: 1543 Favoritos: 2
Ver los usuarios que votaron...
10 Comentarios Ip Man 3 [4k UHD Dual Lat-Chino][2015] Mega
Muchas gracias! Tenes mas en 4k? Saludos!
@dainotta De nada... sí, tengo más en 4k, pero no de esta saga, ya iré subiendolas paulatinamente.
Es 4K rescalado cierto? por lo del bitrate 5440 kb/s eso tiene una BDRip "sencillo" para ser 4k deberia de tener minimo 9mil para arriba  
@baag78 Acordate que es HEVC! pero si, por lo que eh buscado esta no ah salido en 4k ofcialemnte, asi que seguro solo es un upscale
q excelente muchas gracias
decime la contraseña del rar
@baag78 @Protoss01 @ralphy33 @Incrediboy Grax por pasar, y esta peli la descargué hace tiempo e igual me parece upscale, aunque en mejor calidad que las 1080p que andan por ahí...

@carapatra El pass es "identi" sin comillas.
la 3? ya he visto todas, la última acaso no la que peleaba con el boxeador??? ya son como 3 a 4 películas de Ip man que vi y ahora aparece este, de que me perdí amigo
Para dejar un comentario Registrate! o.. eres ya usuario? Accede!
Facebook Identi